Завантажити та скачати торренти українською


Машина Часу / The Time Machine (2002) DTheaterRip 720p Ukr/Eng | Sub Eng

Нові коментарі

Нова тема   Відповісти
Автор Повідомлення
xfsthe 
Оцифрування книг Гуртом
Оцифрування книг Гуртом


З нами з: 13.02.11
Востаннє: 07.12.16
Повідомлень: 279

2012-04-17 08:40  
Машина Часу / The Time Machine (2002) DTheaterRip 720p Ukr/Eng | Sub Eng

Машина Часу / The Time Machine (2002) DTheaterRip 720p Ukr/Eng | Sub Eng


Жанр: пригодницький, фантастика, бойовик
Країна: США



Кіностудія / кінокомпанія: Warner Bros. Pictures
Режисер: Саймон Уеллс
Актори: Гай Пірс, Марк Едді, Філліда Ло, Лаура Кірк, Джош Стемберг, John W. Momrow, Сієнна Гіллорі, Макс Бейкер, Джеффрі М. Мейер, Алан Янг

Сюжет:
Професор Олександр Хартдеген винайшов машину часу. Винайшов не тому, що він геній-учений, а для того що б відправитися в минуле і врятувати свою наречену від випадкової кулі. Але її смерть запобігти не вдалося - минуле не можна змінити. У пошуках відповіді на питання «чому?» Хартдеген забирається на двісті років в майбутнє, застав Землю в жахливому стані.
Отримавши поранення і впав у безпам'ятство він і не помітив, як його машина пройшла крізь вісімсот тисяч років історії планети Земля. Людство змінилося, століття технократії канули в Лету, люди стали схожими на добрих папуасів, які живуть з будинках-люльках, підвішених до скель. Але у такої пасторальної картини є і темна сторона. Частина людства еволюціонувало в морлоки - чудовиськ, які живуть під землею в печерах, і пожирають тих, хто живе на землі.


Тривалість: 01:36:13
Якість: DTheaterRip 720p
Відео:
кодек:
розмір кадру: 1280 x 534
бітрейт: 4 777 кб/с

Аудіо # 1:
мова: українська
переклад: двоголосий закадровий
кодек: 2.0
бітрейт: 192 кб/с

Аудіо # 2:
мова: англійська
переклад: оригінал
кодек: 5.1
бітрейт: 754 кб/с

Субтитри:
мова: англійська
тип: програмні (м'які)
формат: *.srt
MediaInfo

General
Unique ID : 42665715719395721900599515070862905784 (0x20191E31FD271856B347123A1376D1B8)
Complete name : /media/media/0_my_relises/The Time Machine (2002) [ukr,eng] sub[eng] DTheaterRip 720p.mkv
Format : Matroska
Format version : Version 2
File size : 3.92 GiB
Duration : 1h 36mn
Overall bit rate : 5 840 Kbps
Movie name : Машина Часу / The Time Machine (2002) DTheaterRip 720p
Encoded date : UTC 2012-04-17 04:49:07
Writing application : mkvmerge v5.0.1 ('Es ist Sommer') built on Oct 13 2011 14:41:12
Writing library : libebml v1.2.2 + libmatroska v1.3.0
Attachment : Yes

Video
ID : 1
Format : AVC
Format/Info : Advanced Video Codec
Format profile : [email protected]
Format settings, CABAC : Yes
Format settings, ReFrames : 12 frames
Codec ID : V_MPEG4/ISO/AVC
Duration : 1h 36mn
Bit rate : 4 777 Kbps
Width : 1 280 pixels
Height : 534 pixels
Display aspect ratio : 2.40:1
Frame rate : 23.976 fps
Color space : YUV
Chroma subsampling : 4:2:0
Bit depth : 8 bits
Scan type : Progressive
Bits/(Pixel*Frame) : 0.292
Stream size : 3.21 GiB (82%)
Title : Машина Часу / The Time Machine (2002) DTheaterRip 720p
Writing library : core 119 r2106 07efeb4
Encoding settings : cabac=1 / ref=12 / deblock=1:-3:-2 / analyse=0x3:0x113 / me=tesa / subme=11 / psy=1 / psy_rd=1.00:0.05 / mixed_ref=1 / me_range=64 / chroma_me=1 / trellis=2 / 8x8dct=1 / cqm=0 / deadzone=21,11 / fast_pskip=1 / chroma_qp_offset=-3 / threads=12 / sliced_threads=0 / nr=0 / decimate=1 / interlaced=0 / bluray_compat=0 / constrained_intra=0 / bframes=16 / b_pyramid=2 / b_adapt=2 / b_bias=0 / direct=3 / weightb=1 / open_gop=0 / weightp=2 / keyint=240 / keyint_min=23 / scenecut=40 / intra_refresh=0 / rc_lookahead=40 / rc=crf / mbtree=0 / crf=17.0 / qcomp=0.60 / qpmin=0 / qpmax=69 / qpstep=4 / vbv_maxrate=40000 / vbv_bufsize=30000 / crf_max=0.0 / nal_hrd=none / ip_ratio=1.40 / pb_ratio=1.30 / aq=1:0.90 / zones=130370,138400,q=30
Language : English
Color primaries : BT.709-5, BT.1361, IEC 61966-2-4, SMPTE RP177
Transfer characteristics : BT.709-5, BT.1361
Matrix coefficients : BT.709-5, BT.1361, IEC 61966-2-4 709, SMPTE RP177

Audio #1
ID : 2
Format : AC-3
Format/Info : Audio Coding 3
Mode extension : CM (complete main)
Codec ID : A_AC3
Duration : 1h 36mn
Bit rate mode : Constant
Bit rate : 192 Kbps
Channel(s) : 2 channels
Channel positions : Front: L R
Sampling rate : 48.0 KHz
Bit depth : 16 bits
Compression mode : Lossy
Stream size : 132 MiB (3%)
Title : 2.0 @ 192 kbps | Новий канал
Language : Ukrainian

Audio #2
ID : 3
Format :
Format/Info : Digital Theater Systems
Codec ID : A_DTS
Duration : 1h 36mn
Bit rate mode : Constant
Bit rate : 754 Kbps
Channel(s) : 6 channels
Channel positions : Front: L C R, Side: L R, LFE
Sampling rate : 48.0 KHz
Bit depth : 24 bits
Compression mode : Lossy
Stream size : 519 MiB (13%)
Title : 5.1@ 754 kbps
Language : English

Text
ID : 4
Format : UTF-8
Codec ID : S_TEXT/UTF8
Codec ID/Info : UTF-8 Plain Text
Title : Full
Language : English
Світлини:






Джерело: &
Особиста оцінка: 10 - гарний і цікавий фільм

Подяка панам:
karvai0 - синхронізація звуку
thefir - постер
xSlim - запис з ТБ


Срібний реліз (на рейтинг впливає 50% завантаженого)
 Трекер:    Зареєстрований   

Завантажити / скачати фільм українською



відео для новачків



 Зареєстрований:   2012-04-17 08:40
 Розмір:   3.92 GB 
 Оцінка фільму:   9.3/10 (Голосів: 17)
   
Інші релізи
Віктор 
Відео Гуртом - субтитрування
Відео Гуртом - субтитрування


З нами з: 09.01.10
Востаннє: 09.12.16
Повідомлень: 8664

2012-04-17 15:56  
Чому 5.1 який робив Lan немає?
robotron005 
Відео Гуртом - фільмокрай
Відео Гуртом - фільмокрай


З нами з: 29.01.09
Востаннє: 09.12.16
Повідомлень: 2989

2012-04-17 16:00  
w2958l написано:
Чому 5.1 який робив Lan немає?


тамже неякісна доріжка та ідентичний переклад.

Віктор 
Відео Гуртом - субтитрування
Відео Гуртом - субтитрування


З нами з: 09.01.10
Востаннє: 09.12.16
Повідомлень: 8664

2012-04-17 16:03  
robotron005 написано:
тамже неякісна доріжка та ідентичний переклад.

Те що переклад ідентичний я знаю, а чому вона неякісна?

robotron005 
Відео Гуртом - фільмокрай
Відео Гуртом - фільмокрай


З нами з: 29.01.09
Востаннє: 09.12.16
Повідомлень: 2989

2012-04-17 16:05  
w2958l написано:
а чому вона неякісна?


abodnya написано:
В час з 01:26:40 по 01:27:15 йде звук з tvline.biz

Віктор 
Відео Гуртом - субтитрування
Відео Гуртом - субтитрування


З нами з: 09.01.10
Востаннє: 09.12.16
Повідомлень: 8664

2012-04-17 16:10  
abodnya написано:
В час з 01:26:40 по 01:27:15 йде звук з tvline.biz


Зрозуміло.
-----------------------------
Виправив на двоголосий, бо двоголосий.

Ваш часовий пояс: GMT + 2 Години

Нова тема   Відповісти