Завантажити та скачати торренти українською


Фантом / The Darkest Hour (2011) 720p Ukr/Eng | Sub Eng | Ліцензія

Нові коментарі

Нова тема   Відповісти
Автор Повідомлення
Anonymous 







2012-04-16 20:30  
Фантом / The Darkest Hour (2011) 720p Ukr/Eng | Sub Eng | Ліцензія

Фантом / The Darkest Hour (2011) 720p Ukr/Eng | Sub Eng | Ліцензія


Жанр: екшн, жахи, фантастика
Країна: США, Росія



Кіностудія / кінокомпанія: 20th Century Fox
Режисер: Кріс Горак
Актори: Еміль Хірш, Олівія Тірлбі, Макс Мінгелла, Рейчел Тейлор, Йоель Чіннаман, Вероніка Вернадська, Дато Бахтадзе, Гоша Куценко, Микола Єфремов, Артур Смольянінов

Сюжет:
Фільм розповість про чотирьох американських туристів, що опинилися в Москві в момент нападу на неї інопланетян.


Тривалість: 01:28:58
Якість: 720p від [WiKi] ELEKTRI4KA
Відео:
кодек:
розмір кадру: 1280x536
бітрейт: 5375 кб/с

Аудіо # 1:
мова: українська
переклад: професійний дубльований
кодек: 5.1
бітрейт: 384 кб/с

Аудіо # 2:
мова: англійська
переклад: оригінал
кодек: 5.1
бітрейт: 384 кб/с

Джерело озвучення:


Субтитри:
мова: англійська
тип: програмні (м'які)
формат: *.srt

MediaInfo

Format : Matroska
File size : 3.91 GiB
Duration : 1h 29mn
Overall bit rate : 6 268 Kbps
Movie name : The Darkest Hour (2011) 720p Ukr,Eng Sub Eng
Encoded date : UTC 2012-04-16 22:08:11
Writing application : mkvmerge v2.4.2 ('Oh My God') built on Jan 18 2009 17:30:28
Writing library : libebml v0.7.7 + libmatroska v0.8.1
Video #1
ID : 1
Format : AVC
Format/Info : Advanced Video Codec
Format profile : [email protected]
Format settings, CABAC : Yes
Format settings, ReFrames : 12 frames
Muxing mode : Container [email protected]
Codec ID : V_MPEG4/ISO/AVC
Duration : 1h 29mn
Bit rate : 5 375 Kbps
Nominal bit rate : 5 518 Kbps
Width : 1 280 pixels
Height : 536 pixels
Display aspect ratio : 2.35:1
Frame rate : 23.976 fps
Resolution : 24 bits
Colorimetry : 4:2:0
Scan type : Progressive
Bits/(Pixel*Frame) : 0.327
Stream size : 3.35 GiB (86%)
Title : The Darkest Hour (2011) 720p Ukr,Eng Sub Eng
Writing library : core 122 r2184 5c85e0a
Encoding settings : cabac=1 / ref=12 / deblock=1:-3:-3 / analyse=0x3:0x113 / me=umh / subme=10 / psy=1 / psy_rd=1.10:0.00 / mixed_ref=1 / me_range=32 / chroma_me=1 / trellis=2 / 8x8dct=1 / cqm=0 / deadzone=21,11 / fast_pskip=0 / chroma_qp_offset=-4 / threads=18 / sliced_threads=0 / nr=0 / decimate=0 / interlaced=0 / bluray_compat=0 / constrained_intra=0 / bframes=8 / b_pyramid=2 / b_adapt=2 / b_bias=0 / direct=3 / weightb=1 / open_gop=0 / weightp=2 / keyint=250 / keyint_min=23 / scenecut=40 / intra_refresh=0 / rc_lookahead=48 / rc=2pass / mbtree=1 / bitrate=5518 / ratetol=1.0 / qcomp=0.60 / qpmin=0 / qpmax=69 / qpstep=4 / cplxblur=20.0 / qblur=0.5 / ip_ratio=1.40 / aq=1:0.80
Language : English
Audio #2
ID : 2
Format : AC-3
Format/Info : Audio Coding 3
Codec ID : A_AC3
Duration : 1h 29mn
Bit rate mode : Constant
Bit rate : 384 Kbps
Channel(s) : 6 channels
Channel positions : Front: L C R, Surround: L R, LFE
Sampling rate : 48.0 KHz
Stream size : 245 MiB (6%)
Language : Ukrainian
Audio #3
ID : 3
Format : AC-3
Format/Info : Audio Coding 3
Codec ID : A_AC3
Duration : 1h 29mn
Bit rate mode : Constant
Bit rate : 384 Kbps
Channel(s) : 6 channels
Channel positions : Front: L C R, Surround: L R, LFE
Sampling rate : 48.0 KHz
Stream size : 245 MiB (6%)
Language : English
Text #4
ID : 4
Format : UTF-8
Codec ID : S_TEXT/UTF8
Codec ID/Info : UTF-8 Plain Text
Language : English
Скріншоти





Особиста оцінка: не дивився


 Трекер:    Зареєстрований   

Завантажити / скачати фільм українською



відео для новачків



 Зареєстрований:   2012-04-17 00:15
 Розмір:   3.91 GB 
 Оцінка фільму:   9.2/10 (Голосів: 13)
   
Інші релізи
   Фантом / The Darkest Hour (2011) AVC Ukr/Eng AngryBirdsUA  2 / 0   1.7 GB   2012-04-17 23:06 
   Фантом / The Darkest Hour (2011) |Ліцензія sstonecold1  3 / 0   1.49 GB   2012-04-16 21:01 
bot 
робот


З нами з: 30.09.07
Востаннє: 26.05.05
Повідомлень: 16030

2012-04-16 20:30  
Тему перенесено з Фільми в HD до форуму Анонси релізів від Відео Гуртом


Гість

braveboy 
Відео Гуртом - команда HD
Відео Гуртом - команда HD


З нами з: 15.06.10
Востаннє: 29.10.16
Повідомлень: 958

2012-04-16 21:01  
Гість написано:

Сюжет:
Еміль Хірш, Олівія Тірлбі, Макс Мінгелла, Рейчел Тейлор, Йоель Чіннаман, Вероніка Вернадська, Дато Бахтадзе, Гоша Куценко, Микола Єфремов, Артур Смольянінов

Happy

wave_525 
Новенький


З нами з: 06.03.12
Востаннє: 20.11.16
Повідомлень: 11

2012-04-16 21:20  
коли реліз?
Anonymous 







2012-04-16 21:24  
можливо сьогодні
bot 
робот


З нами з: 30.09.07
Востаннє: 26.05.05
Повідомлень: 16030

2012-04-17 00:15  
Тему перенесено з Анонси релізів від Відео Гуртом до форуму Фільми в HD


Гість

kolomyja 
Частий відвідувач


З нами з: 27.01.11
Востаннє: 06.12.16
Повідомлень: 42

2012-04-17 07:14  
Прочитав відгуки на інших сайтах,результат -фільм фуфло
oleh_oleh 
Свій


З нами з: 05.05.11
Востаннє: 06.12.16
Повідомлень: 67

2012-04-17 14:10  
kolomyja

такий собі, "най буде")))

SINIGAMI 
Свій


З нами з: 03.05.10
Востаннє: 04.12.16
Повідомлень: 72

2012-04-17 14:44  
Фільм не поганий, от лише якщоб того лисого рос актора не вкліпали, то все б було ідеально...хоча закінчення дуже дуже дуже каже що буде 2 частина...
KoljaLevko 
Частий відвідувач


З нами з: 29.03.10
Востаннє: 06.12.16
Повідомлень: 47

2012-04-17 19:40  
Цитата:

в Москві в момент нападу на неї інопланетян


Отже я буду за інопланетян )

leroykendall 
Модератор HD


З нами з: 03.01.11
Востаннє: 20.11.16
Повідомлень: 749

2012-04-18 07:16  
SINIGAMI написано:
от лише якщоб того лисого рос актора не вкліпали

Та-а-а-ак, Гоша Куценко - не частий актор на Гуртом крапка ком Happy

LOLOLO 
Свій


З нами з: 04.03.10
Востаннє: 28.11.16
Повідомлень: 128

2012-04-18 08:16  
гидота.. "руссссскімі пулямі да патамуша за намі Массссква"... шо за пропаганда на українському трекері? =)))))
vov4oc 
Частий відвідувач


З нами з: 09.03.11
Востаннє: 04.12.16
Повідомлень: 31

2012-04-18 08:39  
Фільм на один перегляд
oleh_oleh 
Свій


З нами з: 05.05.11
Востаннє: 06.12.16
Повідомлень: 67

2012-04-18 22:19  
LOLOLO
точно "...за намі масква" насмішило))
а гошокуценко на коні в обладунках!)))

taras1994 
Почесний оцифрувальник літератури


З нами з: 23.03.12
Востаннє: 30.11.16
Повідомлень: 5096

2012-04-19 09:23  
одне радісно, москву розбомбили?
Vasyava 
VIP


З нами з: 25.04.10
Востаннє: 06.12.16
Повідомлень: 310

2012-04-19 11:32  
Важко "це" назвати фільмом,шапіто якесь.Бігають пару клоунів "па сталіце"....Ні гри акторської,ні діалогів там не побачите.Спецефекти також нічим не вразили.
Dim-ON 
VIP


З нами з: 02.06.10
Востаннє: 06.12.16
Повідомлень: 431

2012-04-19 19:40  
Гість
Ось видер з DVD українські саби - повні та форсовані. Залишилось тільки підігнати та відкоригувати. Wide grin
Ну і українська доріжка від sstonecold1 вже за традицією крива (прибитий спектр):
Порівняння з доріжкою з DVD
Якщо є бажання переробити, українська доріжка з DVD тут.

Aaz 
Новенький


З нами з: 25.02.09
Востаннє: 25.09.16
Повідомлень: 10

2012-04-20 16:21  
Заснув під час перегляду Neutral
gydota 
Новенький


З нами з: 22.05.08
Востаннє: 29.10.16
Повідомлень: 13

2012-04-21 21:09  
LOLOLO
ніколи в світі би за братів наших менших не агітував=))

V0vlk 
Новенький


З нами з: 11.04.12
Востаннє: 29.06.16
Повідомлень: 4

2012-04-23 17:23  
народ!!!!!
станьте на роздачу!!!!!!!!

bot 
робот


З нами з: 30.09.07
Востаннє: 26.05.05
Повідомлень: 16030

2012-09-21 13:25  
Тему перенесено з Фільми в HD до форуму Неоформлене відео


urij546724

Ваш часовий пояс: GMT + 2 Години

Нова тема   Відповісти