Завантажити та скачати торренти українською


Опівночі в Парижі / Midnight in Paris (2011) 1080p Ukr/Eng | Sub Ukr/Eng

Нові коментарі

Нова тема   Відповісти
Автор Повідомлення
Anonymous 







2012-04-15 23:35  
Опівночі в Парижі / Midnight in Paris (2011) 1080p Ukr/Eng | Sub Ukr/Eng


Опівночі в Парижі / Midnight in Paris (2011) 1080p Ukr/Eng | Sub Ukr/Eng


Жанр: комедія, романтичний
Країна: США, Іспанія



Кіностудія / кінокомпанія: Gravier Productions, Mediapro, Televisió de Catalunya (TV3)
Режисер: Вуді Ален
Актори: Овен Уїлсон, Рейчел МакАдамс, Курт Фуллер, Мімі Кеннеді, Майкл Шин, Ніна Аріанда, Карла Бруні, Моріс Зонненберг, Тьєррі Ханчіссе, Гійом Гуі

Сюжет:
Письменник і безнадійний романтик, впевнений у тому, що повинен був жити в 1920-і роки, приїжджає в Париж зі своєю коханою на канікули і потрапляє в минуле. Зустрічаючись там з Хемінгуеєм, Пікассо, подружжям Фіцжеральд, Гертрудою Стайн він розуміє, що належить цьому часу і хоче залишитися там назавжди.


Тривалість: 01:33:56
Якість: 1080p від [EbP] ELEKTRI4KA
Відео:
кодек:
розмір кадру: 1920x1036
бітрейт: 14.0 мб/с

Аудіо # 1:
мова: українська
переклад: багатоголосий закадровий
кодек: 2.0
бітрейт: 1510 кб/с

Аудіо # 2:
мова: англійська
переклад: оригінал
кодек: 2.0
бітрейт: 1510 кб/с

Перекладено та озвучено студією "Омікрон" на замовлення HURTOM.COM

Субтитри 1:
мова: українська
тип: програмні (м'які)
формат: *.srt
переклад: antusyrzhuk

Субтитри 2:
мова: англійська
тип: програмні (м'які)
формат: *.srt

Інформація про українську доріжку

Українську озвучку створено студією Омікрон на замовлення Hurtom.com в рамках проекту "Хочеш кіно українською? Замовляй!"
В озвученні брали участь вісім професійних акторів.
Детальніше про проект.


Дякуємо користувачам, що фінансово допомогли проекту:
Sepoolka, ponedilok, любомир 75, zirka, VR Gizmo, xfsthe, Dobromyr, Pesko, Andy2, Wivern, Rost3, BMK12, somnambula, Риф, vanami, Зореліт, ppk21, Bushido, abat.andrew, yg, Bohdan Hiz, bolgar.vova, 801thebest, Mitrukhin, toljanuch, ValicV, willian, poman, gudtar, Dim-ON, Шейнога Станіслав, ptarik, arty777, braveboy, fishMD, Міхновський, sanyatyoma, ratbol, MutuLI, Alex :-) HYXT, NemoInFire, Golota, Руєвіт, TYRAEL, zolotoy, Nikson, knedlyk, leonidovod, maksym1990, Masanchickthefir, М_а_м_а_й, Анонім, Qualcuno.
Також дякуємо користувачам, що надали фінансову допомогу, але побажали бути анонімними.
Дакуємо трекеру Torrents.net.ua за підтримку проекту.

Детальніше про збір грошей.
MediaInfo

Format : Matroska
File size : 11.4 GiB
Duration : 1h 33mn
Overall bit rate : 17.4 Mbps
Movie name : Midnight in Paris (2011) 1080p Ukr,Eng Sub Ukr,Eng
Encoded date : UTC 2012-04-16 17:15:52
Writing application : mkvmerge v2.4.2 ('Oh My God') built on Jan 18 2009 17:30:28
Writing library : libebml v0.7.7 + libmatroska v0.8.1
Video #1
ID : 1
Format : AVC
Format/Info : Advanced Video Codec
Format profile : [email protected]
Format settings, CABAC : Yes
Format settings, ReFrames : 4 frames
Muxing mode : Container [email protected]
Codec ID : V_MPEG4/ISO/AVC
Duration : 1h 33mn
Bit rate : 14.0 Mbps
Width : 1 920 pixels
Height : 1 036 pixels
Display aspect ratio : 1.853
Frame rate : 23.976 fps
Resolution : 24 bits
Colorimetry : 4:2:0
Scan type : Progressive
Bits/(Pixel*Frame) : 0.294
Stream size : 9.19 GiB (81%)
Title : Midnight in Paris (2011) 1080p Ukr,Eng Sub Ukr,Eng
Writing library : core 119 r2106 07efeb4
Encoding settings : cabac=1 / ref=4 / deblock=1:-3:-3 / analyse=0x3:0x113 / me=tesa / subme=11 / psy=1 / psy_rd=1.10:0.00 / mixed_ref=1 / me_range=16 / chroma_me=1 / trellis=2 / 8x8dct=1 / cqm=0 / deadzone=21,11 / fast_pskip=0 / chroma_qp_offset=-2 / threads=6 / sliced_threads=0 / nr=0 / decimate=0 / interlaced=0 / bluray_compat=0 / constrained_intra=0 / bframes=8 / b_pyramid=2 / b_adapt=2 / b_bias=0 / direct=3 / weightb=1 / open_gop=0 / weightp=2 / keyint=250 / keyint_min=23 / scenecut=40 / intra_refresh=0 / rc=crf / mbtree=0 / crf=17.5 / qcomp=0.50 / qpmin=0 / qpmax=69 / qpstep=4 / ip_ratio=1.40 / pb_ratio=1.30 / aq=1:0.65 / zones=7066,7170,b=1.3/21937,22517,b=1.5/22822,24120,b=1.5/24281,24376,b=1.5/24854,25147,b=1.5/25336,26213,b=1.5/26759,28089,b=1.5/32106,32420,b=1.5/32518,33200,b=1.5/33945,34331,b=1.5/45226,48670,b=1.5/105961,106511,b=1.5/127152,127445,b=1.5/129542,130280,b=1.5
Language : English
Audio #2
ID : 2
Format :
Format/Info : Digital Theater Systems
Codec ID : A_DTS
Duration : 1h 33mn
Bit rate mode : Constant
Bit rate : 1 510 Kbps
Channel(s) : 2 channels
Channel positions : L R
Sampling rate : 48.0 KHz
Resolution : 16 bits
Stream size : 1 014 MiB (9%)
Title : MVO Omikron Studio for Hurtom
Language : Ukrainian
Audio #3
ID : 3
Format :
Format/Info : Digital Theater Systems
Codec ID : A_DTS
Duration : 1h 33mn
Bit rate mode : Constant
Bit rate : 1 510 Kbps
Channel(s) : 2 channels
Channel positions : L R
Sampling rate : 48.0 KHz
Resolution : 16 bits
Stream size : 1 014 MiB (9%)
Title : Midnight in Paris eng
Language : English
Text #4
ID : 4
Format : UTF-8
Codec ID : S_TEXT/UTF8
Codec ID/Info : UTF-8 Plain Text
Language : Ukrainian
Text #5
ID : 5
Format : UTF-8
Codec ID : S_TEXT/UTF8
Codec ID/Info : UTF-8 Plain Text
Language : English
Скріншоти





Джерело:
Особиста оцінка: 8/10


Авторський реліз (завантажувати можна без реєстрації)
 Трекер:    Зареєстрований   

Завантажити / скачати фільм українською



відео для новачків



 Зареєстрований:   2012-04-16 19:38
 Розмір:   11.41 GB 
 Оцінка фільму:   9.9/10 (Голосів: 16)
   
bot 
робот


З нами з: 30.09.07
Востаннє: 26.05.05
Повідомлень: 16004

2012-04-15 23:36  
Тему перенесено з Фільми в HD до форуму Анонси релізів від Відео Гуртом


Гість

Vasyava 
VIP


З нами з: 25.04.10
Востаннє: 06.12.16
Повідомлень: 310

2012-04-16 03:01  
Круто )))
Треба буде сьогодні вночі, після роботи заватажити

Шейнога Станіслав 
Поважний учасник


З нами з: 16.09.11
Востаннє: 03.12.16
Повідомлень: 176

2012-04-16 12:34  
Дяка студії "Омікрон" за оперативну роботу!

Фільм цікавий.

Реліз сьогодні буде, так?

ratbol 
Модератор HD


З нами з: 03.02.09
Востаннє: 05.12.16
Повідомлень: 1088

2012-04-16 14:28  
А що англ сабів не буде?
І звідки 5.1? Всюди 2.0.

Anonymous 







2012-04-16 15:47  
ratbol
саби є, казали шо має бути звук ДТС

The_Marlboro 
Відео Гуртом - субтитрування
Відео Гуртом - субтитрування


З нами з: 23.05.10
Востаннє: 05.12.16
Повідомлень: 2854

2012-04-16 16:00  
Гість написано:
саби є, казали шо має бути звук ДТС (уточнюється)

Буде

Додано через 4 хвилини 29 секунд:

TheMarlboro написано:
Буде

з релізом у 720р

ratbol 
Модератор HD


З нами з: 03.02.09
Востаннє: 05.12.16
Повідомлень: 1088

2012-04-16 17:15  
Гість
TheMarlboro
- це добре. Але мене цікавлять канали?
Бо всюди, навіть в оригінальній - -HD MA 2.0 або 3.0

The_Marlboro 
Відео Гуртом - субтитрування
Відео Гуртом - субтитрування


З нами з: 23.05.10
Востаннє: 05.12.16
Повідомлень: 2854

2012-04-16 17:16  
ratbol, 2.0
bot 
робот


З нами з: 30.09.07
Востаннє: 26.05.05
Повідомлень: 16004

2012-04-16 19:38  
Тему перенесено з Анонси релізів від Відео Гуртом до форуму Фільми в HD


Гість

Vanzh 
Новенький


З нами з: 10.01.12
Востаннє: 28.02.16
Повідомлень: 6

2012-04-18 21:09  
Дякую за чудовий фільм. Отримав море приємних вражень.
JoaJoa16 
Частий відвідувач


З нами з: 04.04.12
Востаннє: 17.11.16
Повідомлень: 48

2012-05-14 02:33  
Прекрасний фільм!
bot 
робот


З нами з: 30.09.07
Востаннє: 26.05.05
Повідомлень: 16004

2012-09-21 13:26  
Тему перенесено з Фільми в HD до форуму Неоформлене відео


urij546724

Ваш часовий пояс: GMT + 2 Години

Нова тема   Відповісти