Завантажити та скачати торренти українською


Тафійчуки - Гуцульські награвання (2 CD) (2008) [FLAC] | Folk

Нові коментарі

Нова тема   Відповісти
Автор Повідомлення
gosha.samovar 
VIP


З нами з: 08.09.10
Востаннє: 05.12.16
Повідомлень: 400

2012-04-15 20:15  
Тафійчуки - Гуцульські награвання (2 CD) (2008) [FLAC] | Folk



Стиль: Folk
Країна, місто: Україна, Івано-Франківщина, село Верхній Буковець
Видавець: Taras Bulba Entertainment
Виконавці:
Родина Тафійчуків:
    Михайло Миколайович - духові, скрипка, спів
    Юрко - духові, скрипка, спів
    Дмитро - бубон, духові, спів
    Василь - духові, спів
    Микола - цимбали, спів
    Ганнуся - спів
    Василина - спів
    Марійка - спів
    Михайло Миколайович Півнюк - скрипка (CD1 - 11, 13; CD2 - 9)

Пісні:
CD-1 "Гуцульські награвання"
    01. Сигнали на трембітах
    02. Про трембіти
    03. Награвання на телинці
    04. Танець "Півторак"
    05. Награвання на флоярі
    06. Награвання на флоярі та скрипці
    07. Награвання на денцівці
    08. Награвання на дуді й сопілці
    09. Старовинний опришківський танець "Аркан"
    10. Гуцулка
    11. Давня гуцульська гра
    12. Награвання застільні
    13. Награвання на скрипці з сопілкою
    14. Традиційні гуцульські награвання
    15. Цимбали з сопілкою
    16. Молдовський весільний танець
    17. "Дивна ж моя головонька"
    18. "Чи я тобі не казала, милий мій легіню"
    19. "Ой, попити горілочки"
    20. Награвання на скрипці з дудами

Тривалість: 00:48:15
Мова: українська: 02, 03, 05, 06, 07, 09, 11, 12, 15, 17, 18, 19; відсутня: 01, 04, 08, 10, 13, 14, 16, 20
Аудіо-кодек: FLAC
Бітрейт: 842 кб/с
EAC Log
Exact Audio Copy V1.0 beta 3 from 29. August 2011

Отчёт EAC об извлечении, выполненном 11. марта 2012, 23:55

Тафійчуки / Гуцульські награвання (CD 1)

Дисковод: PHILIPS SPD2519T Adapter: 2 ID: 0

Режим чтения : Достоверность
Использование точного потока : Да
Отключение кэша аудио : Да
Использование указателей C2 : Нет

Коррекция смещения при чтении : 6
Способность читать области Lead-in и Lead-out : Нет
Заполнение пропущенных сэмплов тишиной : Да
Удаление блоков с тишиной в начале и конце : Нет
При вычислениях CRC использовались нулевые сэмплы : Да
Интерфейс : Встроенный Win32-интерфейс для Win NT/2000

Выходной формат : Пользовательский кодировщик
Выбранный битрейт : 1024 kBit/s
Качество : Высокий
Добавление ID3-тега : Нет
Утилита сжатия : D:\soft_2\EAC\Exact Audio Copy\Flac\flac.exe
Дополнительные параметры : -V -8 -T "Date=%year%" -T "Genre=%genre%" %source%

TOC извлечённого CD

Трек | Старт | Длительность | Начальный сектор | Конечный сектор
---------------------------------------------------------------------
1 | 0:00.00 | 0:37.64 | 0 | 2838
2 | 0:37.64 | 0:38.21 | 2839 | 5709
3 | 1:16.10 | 2:47.74 | 5710 | 18308
4 | 4:04.09 | 0:34.70 | 18309 | 20928
5 | 4:39.04 | 2:35.16 | 20929 | 32569
6 | 7:14.20 | 7:45.60 | 32570 | 67504
7 | 15:00.05 | 4:47.17 | 67505 | 89046
8 | 19:47.22 | 4:30.56 | 89047 | 109352
9 | 24:18.03 | 2:48.11 | 109353 | 121963
10 | 27:06.14 | 0:40.45 | 121964 | 125008
11 | 27:46.59 | 1:58.33 | 125009 | 133891
12 | 29:45.17 | 2:54.27 | 133892 | 146968
13 | 32:39.44 | 1:10.13 | 146969 | 152231
14 | 33:49.57 | 1:12.03 | 152232 | 157634
15 | 35:01.60 | 2:57.44 | 157635 | 170953
16 | 37:59.29 | 1:22.49 | 170954 | 177152
17 | 39:22.03 | 2:02.02 | 177153 | 186304
18 | 41:24.05 | 3:03.00 | 186305 | 200029
19 | 44:27.05 | 1:08.29 | 200030 | 205158
20 | 45:35.34 | 2:39.53 | 205159 | 217136

Характеристики диапазона извлечения и сообщения об ошибках

Выбранный диапазон

Имя файла E:\Музіка!\from EAC\Тафійчуки - Гуцульські награвання (CD 1).wav

Пиковый уровень 89.3 %
Скорость извлечения 7.2 X
Качество диапазона 100.0 %
CRC теста E454F5DC
CRC копии E454F5DC
Копирование... OK

Ошибок не произошло

AccurateRip: сводка

Трек 1 отсутствует в базе данных
Трек 2 отсутствует в базе данных
Трек 3 отсутствует в базе данных
Трек 4 отсутствует в базе данных
Трек 5 отсутствует в базе данных
Трек 6 отсутствует в базе данных
Трек 7 отсутствует в базе данных
Трек 8 отсутствует в базе данных
Трек 9 отсутствует в базе данных
Трек 10 отсутствует в базе данных
Трек 11 отсутствует в базе данных
Трек 12 отсутствует в базе данных
Трек 13 отсутствует в базе данных
Трек 14 отсутствует в базе данных
Трек 15 отсутствует в базе данных
Трек 16 отсутствует в базе данных
Трек 17 отсутствует в базе данных
Трек 18 отсутствует в базе данных
Трек 19 отсутствует в базе данных
Трек 20 отсутствует в базе данных

Ни одного трека нет в базе AccurateRip

Конец отчёта

==== Контрольная сумма отчёта AB6D6BD896EAA8F0F60866D852F358E3D8ACC90B4A770F06D447C3DA7FFC6272 ====
Спектр
CD-2 "Весілля"
    01. Перша весільна гра
    02. Зустріч гостей
    03. Бояри йдуть по молоду
    04. Бояри у молодої
    05. Барвінкова (молоду ведуть до шлюбу)
    06. Танець для молодих
    07. Гостей кличуть у повницю
    08. Танець "Решето"
    09. Старовинна весільна гра
    10. Полька
    11. Весільні гуцульські мелодії
    12. Брусторська весільна гра
    13. Танець "Півторак"
    14. Весільні награвання на скрипці й сопілці
    15. Весільний танець
    16. Награвання, як гостей проводжають

Тривалість: 00:53:31
Мова: українська: 02, 05, 06, 07, 08, 09, 11, 13, 15, 16; відсутня: 01, 03, 04, 10, 12, 14
Аудіо-кодек: FLAC
Бітрейт: 974 кб/с
EAC Log
Exact Audio Copy V1.0 beta 3 from 29. August 2011

Отчёт EAC об извлечении, выполненном 11. марта 2012, 23:24

Тафійчуки / Гуцульські награвання (CD 2)

Дисковод: PHILIPS SPD2519T Adapter: 2 ID: 0

Режим чтения : Достоверность
Использование точного потока : Да
Отключение кэша аудио : Да
Использование указателей C2 : Нет

Коррекция смещения при чтении : 6
Способность читать области Lead-in и Lead-out : Нет
Заполнение пропущенных сэмплов тишиной : Да
Удаление блоков с тишиной в начале и конце : Нет
При вычислениях CRC использовались нулевые сэмплы : Да
Интерфейс : Встроенный Win32-интерфейс для Win NT/2000

Выходной формат : Пользовательский кодировщик
Выбранный битрейт : 1024 kBit/s
Качество : Высокий
Добавление ID3-тега : Нет
Утилита сжатия : D:\soft_2\EAC\Exact Audio Copy\Flac\flac.exe
Дополнительные параметры : -V -8 -T "Date=%year%" -T "Genre=%genre%" %source%

TOC извлечённого CD

Трек | Старт | Длительность | Начальный сектор | Конечный сектор
---------------------------------------------------------------------
1 | 0:00.00 | 1:02.55 | 0 | 4704
2 | 1:02.55 | 6:08.48 | 4705 | 32352
3 | 7:11.28 | 2:35.07 | 32353 | 43984
4 | 9:46.35 | 1:21.28 | 43985 | 50087
5 | 11:07.63 | 2:35.28 | 50088 | 61740
6 | 13:43.16 | 2:33.16 | 61741 | 73231
7 | 16:16.32 | 2:38.67 | 73232 | 85148
8 | 18:55.24 | 1:18.60 | 85149 | 91058
9 | 20:14.09 | 2:57.55 | 91059 | 104388
10 | 23:11.64 | 2:48.63 | 104389 | 117051
11 | 26:00.52 | 7:59.67 | 117052 | 153043
12 | 34:00.44 | 3:07.10 | 153044 | 167078
13 | 37:07.54 | 3:36.39 | 167079 | 183317
14 | 40:44.18 | 2:07.59 | 183318 | 192901
15 | 42:52.02 | 8:24.34 | 192902 | 230735
16 | 51:16.36 | 2:14.40 | 230736 | 240825

Характеристики диапазона извлечения и сообщения об ошибках

Выбранный диапазон

Имя файла E:\Музіка!\from EAC\Тафійчуки - Гуцульські награвання (CD 2).wav

Пиковый уровень 94.4 %
Скорость извлечения 7.3 X
Качество диапазона 100.0 %
CRC теста BB8ADF5B
CRC копии BB8ADF5B
Копирование... OK

Ошибок не произошло

AccurateRip: сводка

Трек 1 отсутствует в базе данных
Трек 2 отсутствует в базе данных
Трек 3 отсутствует в базе данных
Трек 4 отсутствует в базе данных
Трек 5 отсутствует в базе данных
Трек 6 отсутствует в базе данных
Трек 7 отсутствует в базе данных
Трек 8 отсутствует в базе данных
Трек 9 отсутствует в базе данных
Трек 10 отсутствует в базе данных
Трек 11 отсутствует в базе данных
Трек 12 отсутствует в базе данных
Трек 13 отсутствует в базе данных
Трек 14 отсутствует в базе данных
Трек 15 отсутствует в базе данных
Трек 16 отсутствует в базе данных

Ни одного трека нет в базе AccurateRip

Конец отчёта

==== Контрольная сумма отчёта 52A64DE9C634BFB5364E4CF40421C0ADD11415303A730F2B4A0B492B38D57E77 ====
Спектр
Тривалість: 01:41:46
Мова: українська
Аудіо-кодек: FLAC
Бітрейт: 842-974 кб/с
Джерело: власний ріп власних CD
Додаткова інформація
Це - один з найулюбленіших дисків моєї маленької колекції. Мені особисто так подобається ця музика, що я навіть не хочу сюди писати якийсь загруз із Умки. Це просто треба слухати і насолоджуватисьHappy
Якщо Ви справді бажаєте підтримати українське - після прослуховування, якщо музика вам сподобалась, придбайте ліцензійний диск. Підтримаймо вітчизняних виконавців!


Срібний реліз (на рейтинг впливає 50% завантаженого)
 Трекер:    Зареєстрований   

Завантажити / скачати українську музику



відео для новачків



 Зареєстрований:   2012-04-15 20:15
 Розмір:   830 MB 
 Оцінка музики:   10/10 (Голосів: 12)
   
gosha.samovar 
VIP


З нами з: 08.09.10
Востаннє: 05.12.16
Повідомлень: 400

2012-04-15 20:18  
Друзі, Христос воскрес! Зі Святом вас!!
medroid 
Свій


З нами з: 06.12.08
Востаннє: 03.12.16
Повідомлень: 77

2012-04-15 20:29  
... в МР3 можливо це виставити?... просто в цьому форматі є можливість на диск закинути багацько альбомів та слухати декілька годин, особливо для авто підходить..., а так тільки пачки дисків тягаєш за собоюю... Wink (1)
Gienek_Lwow 
VIP


З нами з: 28.09.10
Востаннє: 04.12.16
Повідомлень: 541

2012-04-15 21:16  
gosha.samovar написано:
Друзі, Христос воскрес! Зі Святом вас!!

Воістину Воскрес! Взаємно! Всім добра!

medroid написано:
в МР3 можливо це виставити?... просто в цьому форматі є можливість на диск закинути багацько альбомів та слухати декілька годин

Не проблема створити диск DVD AUDIO, на нього влазить акурат 5 шт. СDDA, тай слухати скільки душа забажає.

Kulja 
Частий відвідувач


З нами з: 02.06.10
Востаннє: 31.10.16
Повідомлень: 30

2012-04-16 07:20  
Чув їх на Країні Мрій. Дуже сподобались!

А щодо FLAKу... З кращого завжди можна зробити гірше (МР3).

bohun 
VIP


З нами з: 21.03.09
Востаннє: 05.12.16
Повідомлень: 271

2012-04-16 15:39  
Дякую! Дякую!! Дякую!!! Дуже дякую за такий реліз! 2 CD Тафійчуків, тай ще і в FLAC - колись я про таке тільки мріяв.
PS. Я так розумію - це продовження мого "Гуцульського музичного тижня в FLAC"))) , після "Мелодій карпатських полонин", "Весілля у Космачі", "Тіней забутих предків". Дуже бракує ще "Троїстих музик Прикарпаття" в lossless (вони в мене на 90% готові, незабаром викладу), "Карпатія" (128кбіт не сильно тішать слух)...
PPS. Правильно не "Іванофранківщина", а "Івано-Франківщина"

gosha.samovar 
VIP


З нами з: 08.09.10
Востаннє: 05.12.16
Повідомлень: 400

2012-04-16 15:57  
Цитата:
"Карпатія" (128кбіт не сильно тішать слух)...

Пошукаю у себе.
Подивився. Виявляється, у мене на сіді не "Карпатія", а якісь "Karpatiany". А "Карпатія" - теж у 128.
Цитата:
Правильно не "Іванофранківщина", а "Івано-Франківщина"

Аааа, оце я попав))). Дякую, виправив.

fv007 
VIP


З нами з: 01.01.10
Востаннє: 04.12.16
Повідомлень: 449

2013-04-01 11:21  
Таке нескромне питання - чи має хто в колекції диски з записами Родини Тафійчуків видані
польським лейблом Koka Records у 2000 та 2002 році, або хоча б mp3 з них.
Диски

Rodzina Tafijczuków. Huculszczyzna - muzyka ukraińskich Karpat #1


Rodzina Tafijczuków. Huculszczyzna - muzyka ukraińskich Karpat #2

bohun 
VIP


З нами з: 21.03.09
Востаннє: 05.12.16
Повідомлень: 271

2014-02-11 23:19  
fv007
Як виявляється, в мене є з першого по тринадцятий трек диску #1, в 128 кбіт/c, довгий час в мене стояла та папка і я аж тепер дізнався з якого то диску ріп Happy

Ваш часовий пояс: GMT + 2 Години

Нова тема   Відповісти