Завантажити та скачати торренти українською


Дерево життя / The Tree of Life (2011) 1080p Ukr/Eng | Sub Ukr/Eng

Нові коментарі

Нова тема   Відповісти
Автор Повідомлення
Anonymous 







2012-04-13 21:43  
Дерево життя / The Tree of Life (2011) 1080p Ukr/Eng | Sub Ukr/Eng

Дерево життя / The Tree of Life (2011) 1080p Ukr/Eng | Sub Ukr/Eng
Оригінальний постер:
Дерево життя / The Tree of Life (2011) 1080p Ukr/Eng | Sub Ukr/Eng


Жанр: драма
Країна: США







Кіностудія / кінокомпанія: Cottonwood Pictures, Plan B Entertainment, River Road Entertainment
Режисер: Терренс Малік (Terrence Malick)
Актори: Бред Пітт (Brad Pitt), Шон Пенн (Sean Penn), Джессіка Честейн (Jessica Chastain), Ларамі Епплер (Laramie Eppler), Ті Шерідан (Tye Sheridan), Фіона Шоу (Fiona Shaw) та інші.



Сюжет:
Ми спостерігаємо за розвитком 11-річного Джека, одного з трьох братів. Спочатку дитині все здається дивним. Очима своєї душі він спостерігає за вчинками мами. Вона являє собою любов і милосердя в той час як батько намагається навчити сина, що в реальному світі на перше місце необхідно завжди ставити себе. Кожен з батьків намагається переманити Джека на свій бік, і він повинен примиритися з їх домаганнями. Дійсність стає похмурішими, коли головному герою вперше доводиться зіткнутися з болем, стражданнями і смертю. Колись абсолютно ясний світ перетворюється на лабіринт.




Тривалість: 02:18:54
Якість: 1080p від [WiKi] UNIONGANG
Відео:
кодек:
розмір кадру: 1920x1040
бітрейт: 15.1 мб/с



Аудіо # 1:
мова: українська
переклад: багатоголосий закадровий
кодек: 5.1
бітрейт: 1510 кб/с

Аудіо # 2:
мова: англійська
переклад: оригінал
кодек: 5.1
бітрейт: 1510 кб/с

Перекладено та озвучено студією "Омікрон" на замовлення HURTOM



Субтитри:
мова: українська
тип: програмні (м'які)
формат: *.srt

Субтитри:
мова: англійська
тип: програмні (м'які)
формат: *.srt

Дерево життя / The Tree of Life (2011) 720p Ukr/Eng | Sub Ukr/Eng 8.38 Gb



MediaInfo

Format : Matroska
File size : 18.5 GiB
Duration : 2h 18mn
Overall bit rate : 19.0 Mbps
Movie name : The Tree of Life (2011) 1080p Ukr,Eng Sub Ukr,Eng
Encoded date : UTC 2012-04-13 21:35:40
Writing application : mkvmerge v2.4.2 ('Oh My God') built on Jan 18 2009 17:30:28
Writing library : libebml v0.7.7 + libmatroska v0.8.1
Video #1
ID : 1
Format : AVC
Format/Info : Advanced Video Codec
Format profile : [email protected]
Format settings, CABAC : Yes
Format settings, ReFrames : 5 frames
Muxing mode : Container [email protected]
Codec ID : V_MPEG4/ISO/AVC
Duration : 2h 18mn
Bit rate : 15.6 Mbps
Nominal bit rate : 16.0 Mbps
Width : 1 920 pixels
Height : 1 040 pixels
Display aspect ratio : 16:9
Frame rate : 23.976 fps
Resolution : 24 bits
Colorimetry : 4:2:0
Scan type : Progressive
Bits/(Pixel*Frame) : 0.326
Stream size : 15.1 GiB (82%)
Title : The Tree of Life (2011) 1080p Ukr,Eng Sub Ukr,Eng
Writing library : core 119 r2106 07efeb4
Encoding settings : cabac=1 / ref=5 / deblock=1:-3:-3 / analyse=0x3:0x113 / me=umh / subme=10 / psy=1 / psy_rd=1.10:0.00 / mixed_ref=1 / me_range=48 / chroma_me=1 / trellis=2 / 8x8dct=1 / cqm=0 / deadzone=21,11 / fast_pskip=0 / chroma_qp_offset=-4 / threads=12 / sliced_threads=0 / nr=0 / decimate=0 / interlaced=0 / bluray_compat=0 / constrained_intra=0 / bframes=8 / b_pyramid=2 / b_adapt=2 / b_bias=0 / direct=3 / weightb=1 / open_gop=0 / weightp=2 / keyint=250 / keyint_min=23 / scenecut=40 / intra_refresh=0 / rc_lookahead=48 / rc=2pass / mbtree=1 / bitrate=16000 / ratetol=1.0 / qcomp=0.60 / qpmin=0 / qpmax=69 / qpstep=4 / cplxblur=20.0 / qblur=0.5 / ip_ratio=1.40 / aq=1:0.80
Language : English
Audio #2
ID : 2
Format :
Format/Info : Digital Theater Systems
Codec ID : A_DTS
Duration : 2h 18mn
Bit rate mode : Constant
Bit rate : 1 510 Kbps
Channel(s) : 6 channels
Channel positions : Front: L C R, Surround: L R, LFE
Sampling rate : 48.0 KHz
Resolution : 24 bits
Stream size : 1.46 GiB (8%)
Title : VO Omikron Studio for Hurtom
Language : Ukrainian
Audio #3
ID : 3
Format :
Format/Info : Digital Theater Systems
Codec ID : A_DTS
Duration : 2h 18mn
Bit rate mode : Constant
Bit rate : 1 510 Kbps
Channel(s) : 6 channels
Channel positions : Front: L C R, Surround: L R, LFE
Sampling rate : 48.0 KHz
Resolution : 24 bits
Stream size : 1.46 GiB (8%)
Title : English @ 1509 Kbps
Language : English
Text #4
ID : 4
Format : UTF-8
Codec ID : S_TEXT/UTF8
Codec ID/Info : UTF-8 Plain Text
Title : hurtom.com
Language : Ukrainian
Text #5
ID : 5
Format : UTF-8
Codec ID : S_TEXT/UTF8
Codec ID/Info : UTF-8 Plain Text
Language : English
Скріншоти



Інформація про українську доріжку

Українську озвучку створено студією Омікрон на замовлення Hurtom.com в рамках проекту "Хочеш кіно українською? Замовляй!"
В озвученні приймали участь п'ять професійних акторів.
Детальніше про проект.


Дякуємо користувачам, що фінансово допомогли проекту:
Sepoolka, ponedilok, любомир 75, zirka, VR Gizmo, xfsthe, Dobromyr, Pesko, Andy2, Wivern, Rost3, BMK12, somnambula, Риф, vanami, Зореліт, ppk21, Bushido, abat.andrew, yg, Bohdan Hiz, bolgar.vova, 801thebest, Mitrukhin, toljanuch, ValicV, willian, poman, gudtar, Dim-ON, Шейнога Станіслав, ptarik, arty777, braveboy, fishMD, Міхновський, sanyatyoma, ratbol, MutuLI, Alex :-) HYXT, NemoInFire, Golota, Руєвіт, TYRAEL, zolotoy, Nikson, knedlyk, leonidovod, maksym1990, Masanchickthefir, М_а_м_а_й, Анонім, Qualcuno.
Також дякуємо користувачам, що надали фінансову допомогу, але побажали бути анонімними.
Дакуємо трекеру Torrents.net.ua за підтримку проекту.

Детальніше про збір грошей.


Особиста оцінка: 10/10


Авторський реліз (завантажувати можна без реєстрації)
 Трекер:    Зареєстрований   

Завантажити / скачати фільм українською



відео для новачків



 Зареєстрований:   2012-04-14 00:17
 Розмір:   18.45 GB 
 Оцінка фільму:   8.1/10 (Голосів: 12)
   
EGREAT 
Новенький


З нами з: 17.05.09
Востаннє: 18.01.16
Повідомлень: 13

2012-04-14 19:38  
Дивився цей фільм... Але до кінця не зумів втриматися... Надто заплутаний... Але з глибоким змістом... Якщо сісти за один раз переглянути (а не так, як я, що дивився його 3 рази і то не подужав...), то може він і зрозуміліший буде)))
ybivatel 
Новенький


З нами з: 06.04.12
Востаннє: 04.12.16
Повідомлень: 13

2012-05-24 17:52  
мда... 9 кб\с неймовірна швидкість ...
ЛЮДИ !!! СКАЧАЛИ ??? Дайте й іншим скачати !!! стійте на роздачі !!!

bot 
робот


З нами з: 30.09.07
Востаннє: 26.05.05
Повідомлень: 15989

2012-09-21 13:26  
Тему перенесено з Фільми в HD до форуму Неоформлене відео


urij546724

Ваш часовий пояс: GMT + 2 Години

Нова тема   Відповісти