Завантажити та скачати торренти українською


Дерево життя / The Tree of Life (2011) 720p Ukr/Eng | Sub Ukr/Eng

Нові коментарі

Нова тема   Відповісти
Автор Повідомлення
Omikron 
VIP


З нами з: 03.01.12
Востаннє: 30.11.16
Повідомлень: 297

2012-04-12 17:16  
Дерево життя / The Tree of Life (2011) 720p Ukr/Eng | Sub Ukr/Eng


Жанр: Фантастика, драма
Країна: США



Кіностудія / кінокомпанія: Cottonwood Pictures, Plan B Entertainment, River Road Entertainment
Режисер: Терренс Малік (Terrence Malick)
Актори: Бред Пітт (Brad Pitt), Шон Пенн (Sean Penn), Джессіка Честейн (Jessica Chastain), Ларамі Епплер (Laramie Eppler), Ті Шерідан (Tye Sheridan), Фіона Шоу (Fiona Shaw) та інші.

Сюжет:
Ми спостерігаємо за розвитком 11-річного Джека, одного з трьох братів. Спочатку дитині все здається дивним. Очима своєї душі він спостерігає за вчинками мами. Вона являє собою любов і милосердя в той час як батько намагається навчити сина, що в реальному світі на перше місце необхідно завжди ставити себе. Кожен з батьків намагається переманити Джека на свій бік, і він повинен примиритися з їх домаганнями. Дійсність стає похмурішими, коли головному герою вперше доводиться зіткнутися з болем, стражданнями і смертю. Колись абсолютно ясний світ перетворюється на лабіринт.


Перекладено та озвучено студією "Омікрон" на замовлення HURTOM.

Тривалість: 02:18:54
Якість:
Відео:
кодек: [email protected]
розмір кадру: 1280 x 694
бітрейт: 10.7 mb/с

Аудіо #1:
мова: українська
переклад: багатоголосий закадровий |"Студія Омікрон"|
кодек: 5.1
бітрейт: 1510 кб/с

Аудіо #2:
мова: англійська
переклад: оригінал
кодек: 5.1
бітрейт: 1510 кб/с

Субтитри #1:
мова: українська
тип: програмні (м'які)
формат: *.srt

Субтитри #2:
мова: англійська
тип: програмні (м'які)
формат: *.srt
Інформація про українську доріжку

Українську озвучку створено студією Омікрон на замовлення Hurtom.com в рамках проекту "Хочеш кіно українською? Замовляй!"
В озвученні приймали участь п'ять професійних акторів.
Детальніше про проект.


Дякуємо користувачам, що фінансово допомогли проекту:
Sepoolka, ponedilok, любомир 75, zirka, VR Gizmo, xfsthe, Dobromyr, Pesko, Andy2, Wivern, Rost3, BMK12, somnambula, Риф, vanami, Зореліт, ppk21, Bushido, abat.andrew, yg, Bohdan Hiz, bolgar.vova, 801thebest, Mitrukhin, toljanuch, ValicV, willian, poman, gudtar, Dim-ON, Шейнога Станіслав, ptarik, arty777, braveboy, fishMD, Міхновський, sanyatyoma, ratbol, MutuLI, Alex :-) HYXT, NemoInFire, Golota, Руєвіт, TYRAEL, zolotoy, Nikson, knedlyk, leonidovod, maksym1990, Masanchickthefir, М_а_м_а_й, Анонім, Qualcuno.
Також дякуємо користувачам, що надали фінансову допомогу, але побажали бути анонімними.
Дакуємо трекеру Torrents.net.ua за підтримку проекту.

Детальніше про збір грошей.
Скріншоти:










Звіт Mediainfo:
General
Unique ID : 220398423592006436814241729021389859615 (0xA5CF313F1AED8CEAB52A634712506B1F)
Complete name : Z:\Films\The Tree of Life (2011) [ukr.,eng] 720p [Hurtom].mkv
Format : Matroska
Format version : Version 2
File size : 13.6 GiB
Duration : 2h 18mn
Overall bit rate : 14.0 Mbps
Encoded date : UTC 2012-04-12 12:36:25
Writing application : mkvmerge v2.9.0 ('Moanin'') built on May 22 2009 17:46:31
Writing library : libebml v0.7.7 + libmatroska v0.8.1

Video
ID : 1
Format : AVC
Format/Info : Advanced Video Codec
Format profile : [email protected]
Format settings, CABAC : Yes
Format settings, ReFrames : 9 frames
Codec ID : V_MPEG4/ISO/AVC
Duration : 2h 18mn
Bit rate : 10.7 Mbps
Width : 1 280 pixels
Height : 694 pixels
Display aspect ratio : 16:9
Frame rate : 23.976 fps
Color space : YUV
Chroma subsampling : 4:2:0
Bit depth : 8 bits
Scan type : Progressive
Bits/(Pixel*Frame) : 0.501
Stream size : 10.4 GiB (76%)
Title : The Tree of Life 2011 720p BluRay
Writing library : core 116 r2019 9cc407d
Encoding settings : cabac=1 / ref=9 / deblock=1:-3:-3 / analyse=0x3:0x113 / me=umh / subme=9 / psy=1 / psy_rd=1.20:0.10 / mixed_ref=1 / me_range=24 / chroma_me=1 / trellis=2 / 8x8dct=1 / cqm=0 / deadzone=21,11 / fast_pskip=1 / chroma_qp_offset=-3 / threads=3 / sliced_threads=0 / nr=0 / decimate=0 / interlaced=0 / bluray_compat=0 / constrained_intra=0 / bframes=8 / b_pyramid=2 / b_adapt=2 / b_bias=0 / direct=3 / weightb=1 / open_gop=0 / weightp=2 / keyint=250 / keyint_min=23 / scenecut=40 / intra_refresh=0 / rc_lookahead=40 / rc=crf / mbtree=1 / crf=17.5 / qcomp=0.75 / qpmin=0 / qpmax=69 / qpstep=4 / ip_ratio=1.40 / aq=1:0.50
Language : English
Default : Yes
Forced : No

Audio #1
ID : 2
Format :
Format/Info : Digital Theater Systems
Codec ID : A_DTS
Duration : 2h 18mn
Bit rate mode : Constant
Bit rate : 1 510 Kbps
Channel(s) : 6 channels
Channel positions : Front: L C R, Side: L R, LFE
Sampling rate : 48.0 KHz
Bit depth : 24 bits
Compression mode : Lossy
Stream size : 1.46 GiB (11%)
Title : VO Omikron Studio for Hurtom
Language : Ukrainian
Default : Yes
Forced : No

Audio #2
ID : 3
Format :
Format/Info : Digital Theater Systems
Codec ID : A_DTS
Duration : 2h 18mn
Bit rate mode : Constant
Bit rate : 1 510 Kbps
Channel(s) : 6 channels
Channel positions : Front: L C R, Side: L R, LFE
Sampling rate : 48.0 KHz
Bit depth : 24 bits
Compression mode : Lossy
Stream size : 1.46 GiB (11%)
Title : English @ 1509 Kbps
Language : English
Default : No
Forced : No

Text #1
ID : 4
Format : UTF-8
Codec ID : S_TEXT/UTF8
Codec ID/Info : UTF-8 Plain Text
Title : hurtom.com
Language : Ukrainian
Default : No
Forced : No

Text #2
ID : 5
Format : UTF-8
Codec ID : S_TEXT/UTF8
Codec ID/Info : UTF-8 Plain Text
Language : English
Default : No
Forced : No

Menu
00:00:00.000 : en:00:00:00.000
00:04:10.333 : en:00:04:10.333
00:11:13.339 : en:00:11:13.339
00:19:39.970 : en:00:19:39.970
00:36:58.424 : en:00:36:58.424
00:48:38.457 : en:00:48:38.457
00:55:26.740 : en:00:55:26.740
00:58:50.318 : en:00:58:50.318
01:09:28.372 : en:01:09:28.372
01:10:52.873 : en:01:10:52.873
01:15:49.712 : en:01:15:49.712
01:19:50.577 : en:01:19:50.577
01:25:00.512 : en:01:25:00.512
01:26:32.103 : en:01:26:32.103
01:30:31.426 : en:01:30:31.426
01:37:15.162 : en:01:37:15.162
01:39:43.602 : en:01:39:43.602
01:41:35.881 : en:01:41:35.881
01:47:08.505 : en:01:47:08.505
01:53:58.039 : en:01:53:58.039
01:58:13.211 : en:01:58:13.211
02:00:45.112 : en:02:00:45.112
02:11:49.902 : en:02:11:49.902
02:13:04.643 : en:02:13:04.643


Авторський реліз (завантажувати можна без реєстрації)
 Трекер:    Зареєстрований   

Завантажити / скачати фільм українською



відео для новачків



 Зареєстрований:   2012-04-12 17:16
 Розмір:   13.55 GB 
 Оцінка фільму:   8/10 (Голосів: 21)
   
ratbol 
Модератор HD


З нами з: 03.02.09
Востаннє: 01.12.16
Повідомлень: 1088

2012-04-12 21:18  
А 1080р і ремукс будуть, якщо так, то приблизно коли?
leroykendall 
Модератор HD


З нами з: 03.01.11
Востаннє: 20.11.16
Повідомлень: 749

2012-04-12 22:54  
ratbol
Від користувача Omikron наврядчи.

ratbol 
Модератор HD


З нами з: 03.02.09
Востаннє: 01.12.16
Повідомлень: 1088

2012-04-13 00:21  
leroykendall
Та мав би хтось викласти, як і попередні озвучені.
Як дивитися подібні фільми, то вже не відмовляти собі у якості, тимбільше, що дивитимусь вперше=)

leroykendall 
Модератор HD


З нами з: 03.01.11
Востаннє: 20.11.16
Повідомлень: 749

2012-04-14 00:40  
ratbol написано:
А 1080р і ремукс будуть, якщо так, то приблизно коли?

Та вже є.
Ремукс: http://toloka.to/t31783
1080p: http://toloka.to/t35254

ratbol 
Модератор HD


З нами з: 03.02.09
Востаннє: 01.12.16
Повідомлень: 1088

2012-04-14 00:48  
Так, бачив. Ремукс уже вантажиться)
VIPuts 
Новенький


З нами з: 22.12.09
Востаннє: 23.11.16
Повідомлень: 17

2012-04-18 15:13  
Чесно кажучи фільм геть несподобався...!!!
Ваш часовий пояс: GMT + 2 Години

Нова тема   Відповісти