Завантажити та скачати торренти українською


Дзеркала / Mirrors [Unrated] (2008) 720p Ukr/Eng | Sub Ukr/Eng

Нові коментарі

Нова тема   Відповісти
Автор Повідомлення
braveboy 
Відео Гуртом - команда HD
Відео Гуртом - команда HD


З нами з: 15.06.10
Востаннє: 29.10.16
Повідомлень: 958

2012-04-12 05:18  

Дзеркала / Mirrors [Unrated] (2008) 720p Ukr/Eng | Sub Ukr/Eng


Дзеркала / Mirrors [Unrated] (2008) 720p Ukr/Eng | Sub Ukr/Eng

«There Is Evil........On The Other Side»

Жанр: жахи, триллер , детектив
Країна: США, Румунія



Кіностудія / кінокомпанія: Castel Film Romania
Режисер: Олександр Аджа
Актори: Кіфер Сазерленд, Паула Паттон, Камерон Бойс, Еріка Глюк, Емі Смарт, Мері Беті Пейл

Бюджет: $35 000 000
Збори у США: $30 691 439
Збори у світі: $33 050 000
Збори у Росії: $3 841 139
Прем'єра у світі: 15 серпня 2008

Прем’єра в Україні: 21.08.2008
Реліз на DVD: 25 вересня 2008, 16 жовтня 2008
Реліз на Blu-Ray: 23 квітня 2009


Сюжет:
Бен Карсон знавав часи і покраще. Вже пройшов майже рік з тих пір, як неврівноваженого детектива усунули від роботи в Поліцейському управлінні м. Нью-Йорка за вбивство іншого співробітника спецслужби, нещасний випадок, який не тільки коштував йому роботи, але і збудив у ньому тягу до алкоголю і агресивності, із-за чого дружина і діти віддалилися від нього, а сам він знайшов притулок на дивані в квартирі своєї сестри в Куїнс. Втративши надію повернутися до нормального життя і возз'єднатися з сім'єю, Карсон наймається на роботу нічним сторожем вигорілих руїн універмагу “Mayflower”. Те, що колись було символом процвітання і розкоші, тепер поволі руйнується в темноті, як загниваючий корабель-примара, розорений гігантською пожежею, що поглинула безліч безневинних життів. Коли Карсон обходить дозором свої володіння, обвуглені розвалини універмагу, він починає помічати щось зловісне в декоративних дзеркалах, що прикрашають стіни “Mayflower”.



Тривалість: 01:51:22
Якість: 720p
Відео:
кодек:
розмір кадру: 1280 х 534
бітрейт: 8313 кб/с

Аудіо # 1:
мова: українська
переклад: професійний дубльований
кодек: 5.1
бітрейт: 384 кб/с

Аудіо # 2:
мова: англійська
переклад: оригінал
кодек: 5.1
бітрейт: 1510 кб/с

Джерело озвучення:


Субтитри:
мова: українська
тип: програмні (м'які)
формат: *.srt

Субтитри:
мова: англійська
тип: програмні (м'які)
формат: *.srt
log
[info]: frame I:1026 Avg QP:19.25 size:130138
[info]: frame P:34877 Avg QP:20.98 size: 65826
[info]: frame B:124310 Avg QP:21.91 size: 36188
[info]: consecutive B-frames: 1.7% 2.8% 4.3% 29.5% 14.3% 37.2% 10.2%
[info]: mb I I16..4: 11.4% 70.9% 17.7%
[info]: mb P I16..4: 3.5% 33.5% 3.6% P16..4: 25.9% 16.8% 11.8% 1.1% 0.3% skip: 3.5%
[info]: mb B I16..4: 0.7% 10.9% 0.6% B16..8: 38.2% 15.3% 5.8% direct:10.3% skip:18.2% L0:45.3% L1:44.5% BI:10.2%
[info]: 8x8 transform intra:85.5% inter:46.1%
[info]: coded y,uvDC,uvAC intra: 97.2% 83.9% 59.0% inter: 49.6% 36.3% 7.8%
[info]: i16 v,h,dc,p: 13% 5% 30% 52%
[info]: i8 v,h,dc,ddl,ddr,vr,hd,vl,hu: 8% 6% 8% 12% 15% 14% 14% 11% 12%
[info]: i4 v,h,dc,ddl,ddr,vr,hd,vl,hu: 14% 5% 4% 11% 15% 13% 14% 11% 13%
[info]: i8c dc,h,v,p: 47% 20% 17% 16%
[info]: Weighted P-Frames: Y:18.1% UV:12.3%
[info]: ref P L0: 41.8% 11.0% 18.5% 9.4% 6.6% 5.3% 4.0% 3.0% 0.5% 0.0%
[info]: ref B L0: 65.7% 14.6% 8.6% 4.7% 3.7% 1.9% 0.7%
[info]: ref B L1: 88.4% 11.6%
[info]: kb/s:8294.07
MediaInfo
General
Unique ID : 173762389251063108353779386569033908261 (0x82B96B3AD8EC0383916555E1995E0025)
Complete name : E:\Temp\Mirrors [Unrated] (2008) [Ukr,Eng Sub Ukr,Eng] 720p [HURTOM] by braveboy.mkv
Format : Matroska
Format version : Version 2
File size : 7.93 GiB
Duration : 1h 51mn
Overall bit rate : 10.2 Mbps
Movie name : Mirrors [Unrated] (2008) 720p by braveboy
Encoded date : UTC 2012-05-06 01:03:00
Writing application : mkvmerge v5.5.0 ('Healer') built on Apr 6 2012 21:43:24
Writing library : libebml v1.2.3 + libmatroska v1.3.0

Video
ID : 1
Format : AVC
Format/Info : Advanced Video Codec
Format profile : [email protected]
Format settings, CABAC : Yes
Format settings, ReFrames : 8 frames
Codec ID : V_MPEG4/ISO/AVC
Duration : 1h 51mn
Bit rate : 8 313 Kbps
Width : 1 280 pixels
Height : 534 pixels
Display aspect ratio : 2.40:1
Frame rate : 23.976 fps
Color space : YUV
Chroma subsampling : 4:2:0
Bit depth : 8 bits
Scan type : Progressive
Bits/(Pixel*Frame) : 0.507
Stream size : 6.30 GiB (79%)
Title : Mirrors [Unrated] (2008) 720p by braveboy
Writing library : core 124 r2197 69a0443
Encoding settings : cabac=1 / ref=8 / deblock=1:-3:-3 / analyse=0x3:0x133 / me=umh / subme=9 / psy=1 / psy_rd=0.80:0.00 / mixed_ref=1 / me_range=24 / chroma_me=1 / trellis=1 / 8x8dct=1 / cqm=0 / deadzone=21,11 / fast_pskip=0 / chroma_qp_offset=-2 / threads=3 / sliced_threads=0 / nr=0 / decimate=0 / interlaced=0 / bluray_compat=0 / constrained_intra=0 / bframes=6 / b_pyramid=2 / b_adapt=2 / b_bias=0 / direct=1 / weightb=1 / open_gop=0 / weightp=2 / keyint=240 / keyint_min=23 / scenecut=40 / intra_refresh=0 / rc=2pass / mbtree=0 / bitrate=8313 / ratetol=1.0 / qcomp=0.60 / qpmin=10 / qpmax=51 / qpstep=4 / cplxblur=20.0 / qblur=0.5 / ip_ratio=1.40 / pb_ratio=1.30 / aq=1:1.00
Default : Yes
Forced : No

Audio #1
ID : 2
Format : AC-3
Format/Info : Audio Coding 3
Mode extension : CM (complete main)
Format settings, Endianness : Big
Codec ID : A_AC3
Duration : 1h 51mn
Bit rate mode : Constant
Bit rate : 384 Kbps
Channel(s) : 6 channels
Channel positions : Front: L C R, Side: L R, LFE
Sampling rate : 48.0 KHz
Bit depth : 16 bits
Compression mode : Lossy
Stream size : 306 MiB (4%)
Title : 5.1 - 384 kbps [DVD]
Language : Ukrainian
Default : Yes
Forced : No

Audio #2
ID : 3
Format :
Format/Info : Digital Theater Systems
Codec ID : A_DTS
Duration : 1h 51mn
Bit rate mode : Constant
Bit rate : 1 510 Kbps
Channel(s) : 6 channels
Channel positions : Front: L C R, Side: L R, LFE
Sampling rate : 48.0 KHz
Bit depth : 24 bits
Compression mode : Lossy
Stream size : 1.17 GiB (15%)
Title : 5.1 - 1510 kbps
Language : English
Default : No
Forced : No

Text #1
ID : 4
Format : UTF-8
Codec ID : S_TEXT/UTF8
Codec ID/Info : UTF-8 Plain Text
Title : Full
Language : Ukrainian
Default : No
Forced : No

Text #2
ID : 5
Format : UTF-8
Codec ID : S_TEXT/UTF8
Codec ID/Info : UTF-8 Plain Text
Title : Full
Language : English
Default : No
Forced : No

Menu
00:00:00.000 : en:00:00:00.000
00:03:52.564 : en:00:03:52.564
00:05:45.093 : en:00:05:45.093
00:07:26.237 : en:00:07:26.237
00:11:20.513 : en:00:11:20.513
00:15:38.269 : en:00:15:38.269
00:21:44.469 : en:00:21:44.469
00:23:34.453 : en:00:23:34.453
00:33:31.718 : en:00:33:31.718
00:36:26.266 : en:00:36:26.266
00:39:24.277 : en:00:39:24.277
00:44:32.585 : en:00:44:32.585
00:51:03.518 : en:00:51:03.518
00:53:23.949 : en:00:53:23.949
00:56:35.934 : en:00:56:35.934
01:01:58.130 : en:01:01:58.130
01:06:07.003 : en:01:06:07.003
01:08:22.389 : en:01:08:22.389
01:10:34.854 : en:01:10:34.854
01:14:10.487 : en:01:14:10.487
01:19:32.559 : en:01:19:32.559
01:24:26.310 : en:01:24:26.310
01:29:28.154 : en:01:29:28.154
01:32:21.618 : en:01:32:21.618
01:36:07.302 : en:01:36:07.302
01:38:25.231 : en:01:38:25.231
01:42:42.989 : en:01:42:42.989
01:47:23.144 : en:01:47:23.144
Порівняльні скріншоти
Source vs Encode



Скріншоти






720p by braveboy
Цитата:

* Source: Mirrors (2008) [Unrated] 1080p BD-Remux

* Збережено оригінальні чаптери як на Blu-Ray

Особиста оцінка: 10 - без зайвих вагань рекомендую всім!


 Трекер:    Зареєстрований   

Завантажити / скачати фільм українською



відео для новачків



 Зареєстрований:   2012-05-06 05:11
 Розмір:   7.93 GB 
 Оцінка фільму:   8.4/10 (Голосів: 14)
   
Інші релізи
   Дзеркала [Розширена версія] / Mirrors [Unrated Cut] (2008) Ukr/Eng | Sub Ukr/Eng НТН  6 / 0   2.19 GB   2014-04-20 17:37 
   Дзеркала / Mirrors (2008) weber  4 / 0   1.36 GB   2008-09-20 22:26 
braveboy 
Відео Гуртом - команда HD
Відео Гуртом - команда HD


З нами з: 15.06.10
Востаннє: 29.10.16
Повідомлень: 958

2012-04-12 06:12  
Source був дуже зашумлений тому ріп вийшов трохи поганенький

Додано через 50 хвилин 6 секунд:

можливо перероблю ріп

Anonymous 







2012-04-12 09:41  
треба оновити в пам'яті фільм ще разок, а то вже давно дивився
bot 
робот


З нами з: 30.09.07
Востаннє: 26.05.05
Повідомлень: 16001

2012-04-12 13:46  
Тему перенесено з Фільми в HD до форуму Анонси релізів від Відео Гуртом


braveboy

taras1994 
Почесний оцифрувальник літератури


З нами з: 23.03.12
Востаннє: 30.11.16
Повідомлень: 5096

2012-04-24 20:21  
[b]Гість[/b]
Так варто дивитися фільм, чи фільм є повною дурницею?

bot 
робот


З нами з: 30.09.07
Востаннє: 26.05.05
Повідомлень: 16001

2012-05-06 05:11  
Тему перенесено з Анонси релізів від Відео Гуртом до форуму Фільми в HD


braveboy

Kitler 
Модератор програмного забезпечення


З нами з: 22.04.11
Востаннє: 05.12.16
Повідомлень: 591

2012-05-06 09:56  
taras1994, фільм дивитися варто. Мені сподобався.
Арсенко 
Новенький


З нами з: 28.10.11
Востаннє: 20.11.16
Повідомлень: 12

2012-05-07 21:26  
один з кращих жахів, які встиг подивитись
UA_Miroslav 
Модератор програм


З нами з: 11.12.10
Востаннє: 30.09.16
Повідомлень: 356

2012-08-19 14:53  
Станьте на роздачу!
braveboy 
Відео Гуртом - команда HD
Відео Гуртом - команда HD


З нами з: 15.06.10
Востаннє: 29.10.16
Повідомлень: 958

2012-08-19 16:50  
UA_Miroslav написано:
Станьте на роздачу!

3 на роздачі

UA_Miroslav 
Модератор програм


З нами з: 11.12.10
Востаннє: 30.09.16
Повідомлень: 356

2012-08-19 17:19  
braveboy
Мені від цього не легше, швидкість...пі..ь яка висока=)

bigriding 
Новенький


З нами з: 25.08.11
Востаннє: 20.11.16
Повідомлень: 7

2016-01-05 09:41  
як на мене, фільм недуже страшний 7 з 10
Ваш часовий пояс: GMT + 2 Години

Нова тема   Відповісти