Завантажити та скачати торренти українською


Астерікс і Обелікс: Місія Клеопатра / Asterix & Obelix: Mission Cleopatre (2002) 720p Ukr/Fra

Нові коментарі

Нова тема   Відповісти
Автор Повідомлення
Zeus62 
Відео Гуртом - команда HD
Відео Гуртом - команда HD


З нами з: 29.12.08
Востаннє: 16.11.16
Повідомлень: 330

2012-04-11 00:53  
Астерікс і Обелікс: Місія Клеопатра / Asterix & Obelix: Mission Cleopatre (2002) 720p Ukr/Fra

Астерікс і Обелікс: Місія Клеопатра / Asterix & Obelix: Mission Cleopatre (2002) 720p Ukr/Fra


Жанр: Комедія, пригодницький, сімейний, фентезі
Країна: Франція, Німеччина



Кіностудія / кінокомпанія: AMLF, Bavaria Entertainment, Canal
Режисер: Алейн Шабат
Актори: Жерар Депардьє, Жамель Дебуз, Алейн Шабат, Клод Ріш та інші

Сюжет:
Велика клеопатра заключила парі з Цезарем. Суть парі полягала в тому що її люди впродовж трьох місяців зможуть побудувати золотий палац. Цю небезпечну місію надали молодому архітекторові Нумерабісу, якого у випадку невдачі мали б згодувати крокодилам. Нумерабіс кличе на допомого свого друга - друїда Панароміса з зіллям, що надає надприродні сили. А веселі та кмітливі Астерікс з Обеліксом супроводжують старенького до Єгипту, щоб завадити Цезарю, який чекає на поразку Клеопатри.


Тривалість: 01:48:01
Якість:
Відео:
кодек:
розмір кадру: 1280 х 544
бітрейт: 4829 кб/с

Аудіо # 1:
мова: українська
переклад: багатоголосий закадровий
кодек: 5.1
бітрейт: 448 кб/с

Аудіо # 2:
мова: французька
переклад: оригінал
кодек: 5.1
бітрейт: 384 кб/с
MediaInfo:

File size : 4.27 GiB
Duration : 1h 48mn
Overall bit rate : 5 660 Kbps
Encoded date : UTC 2012-04-10 21:13:10
Writing application : mkvmerge v5.5.0 ('Healer') built on Apr 7 2012 12:04:29
Writing library : libebml v1.2.2 + libmatroska v1.3.0

Video
ID : 1
Format : AVC
Format/Info : Advanced Video Codec
Format profile : [email protected]
Format settings, CABAC : Yes
Format settings, ReFrames : 16 frames
Codec ID : V_MPEG4/ISO/AVC
Duration : 1h 48mn
Bit rate : 4 829 Kbps
Width : 1 280 pixels
Height : 544 pixels
Display aspect ratio : 2.35:1
Frame rate mode : Variable
Frame rate : 23.976 fps
Color space : YUV
Chroma subsampling : 4:2:0
Bit depth : 8 bits
Scan type : Progressive
Bits/(Pixel*Frame) : 0.289
Stream size : 3.56 GiB (83%)
Title : For Hurtom by Zeus62
Writing library : core 112
Encoding settings : cabac=1 / ref=16 / deblock=1:-3:-3 / analyse=0x3:0x113 / me=umh / subme=10 / psy=1 / psy_rd=1,00:0,00 / mixed_ref=1 / me_range=64 / chroma_me=1 / trellis=2 / 8x8dct=1 / cqm=0 / deadzone=21,11 / fast_pskip=1 / chroma_qp_offset=-2 / threads=9 / sliced_threads=0 / nr=0 / decimate=1 / interlaced=0 / constrained_intra=0 / bframes=16 / b_pyramid=2 / b_adapt=2 / b_bias=0 / direct=1 / weightb=1 / open_gop=0 / weightp=2 / keyint=240 / keyint_min=23 / scenecut=40 / intra_refresh=0 / rc_lookahead=50 / rc=2pass / mbtree=1 / bitrate=4829 / ratetol=1,0 / qcomp=0,60 / qpmin=3 / qpmax=51 / qpstep=4 / cplxblur=20,0 / qblur=0,5 / ip_ratio=1,40 / aq=1:1,00
Language : Ukrainian
Default : Yes
Forced : No
Color primaries : BT.709-5, BT.1361, IEC 61966-2-4, SMPTE RP177
Transfer characteristics : BT.709-5, BT.1361
Matrix coefficients : BT.709-5, BT.1361, IEC 61966-2-4 709, SMPTE RP177

Audio #1
ID : 2
Format : AC-3
Format/Info : Audio Coding 3
Mode extension : CM (complete main)
Codec ID : A_AC3
Duration : 1h 48mn
Bit rate mode : Constant
Bit rate : 448 Kbps
Channel(s) : 6 channels
Channel positions : Front: L C R, Side: L R, LFE
Sampling rate : 48.0 KHz
Bit depth : 16 bits
Compression mode : Lossy
Stream size : 346 MiB (8%)
Language : Ukrainian
Default : Yes
Forced : No

Audio #2
ID : 3
Format : AC-3
Format/Info : Audio Coding 3
Mode extension : CM (complete main)
Codec ID : A_AC3
Duration : 1h 48mn
Bit rate mode : Constant
Bit rate : 384 Kbps
Channel(s) : 6 channels
Channel positions : Front: L C R, Side: L R, LFE
Sampling rate : 48.0 KHz
Bit depth : 16 bits
Compression mode : Lossy
Stream size : 297 MiB (7%)
Language : French
Default : No
Forced : No
log:
[info]: frame I:1294 Avg QP:16,21 size:146592 PSNR Mean Y:47,08 U:49,08 V:49,86 Avg:47,71 Global:47,36
[info]: frame P:34172 Avg QP:19,31 size: 46131 PSNR Mean Y:44,72 U:47,41 V:48,30 Avg:45,43 Global:44,83
[info]: frame B:119934 Avg QP:22,35 size: 17876 PSNR Mean Y:42,84 U:46,45 V:47,68 Avg:43,76 Global:43,36
[info]: consecutive B-frames: 1,6% 2,2% 8,4% 22,8% 18,5% 37,2% 3,9% 1,5% 0,9% 0,6% 0,5% 1,0% 0,5% 0,1% 0,1% 0,0% 0,0%
[info]: mb I I16..4: 4,4% 80,2% 15,5%
[info]: mb P I16..4: 1,4% 13,1% 1,6% P16..4: 35,1% 26,9% 16,0% 0,0% 0,0% skip: 6,0%
[info]: mb B I16..4: 0,1% 2,1% 0,2% B16..8: 39,8% 14,2% 4,5% direct: 8,2% skip:30,9% L0:44,7% L1:40,6% BI:14,8%
[info]: 8x8 transform intra:83,2% inter:65,3%
[info]: coded y,uvDC,uvAC intra: 91,3% 88,0% 63,2% inter: 37,7% 32,2% 8,6%
[info]: i16 v,h,dc,p: 52% 18% 4% 26%
[info]: i8 v,h,dc,ddl,ddr,vr,hd,vl,hu: 9% 8% 7% 10% 15% 14% 13% 12% 12%
[info]: i4 v,h,dc,ddl,ddr,vr,hd,vl,hu: 11% 8% 3% 9% 16% 15% 14% 12% 12%
[info]: i8c dc,h,v,p: 41% 20% 19% 20%
[info]: Weighted P-Frames: Y:5,2% UV:3,6%
[info]: ref P L0: 40,8% 12,5% 17,2% 6,1% 5,4% 3,6% 3,4% 1,8% 1,8% 1,4% 1,4% 1,0% 1,1% 0,9% 0,9% 0,7%
[info]: ref B L0: 68,1% 12,0% 5,9% 3,3% 2,4% 2,0% 1,5% 1,0% 0,9% 0,7% 0,6% 0,6% 0,5% 0,3% 0,1%
[info]: ref B L1: 91,7% 8,3%
[info]: SSIM Mean Y:0,9751751 (16,051db)
[info]: PSNR Mean Y:43,288 U:46,683 V:47,831 Avg:44,156 Global:43,664 kb/s:4826,20
Скріншоти:
Original vs Encode






Джерело: Власний ріп +
Подяка akon111 за наданий сирий звук та Breniak за зведення.
Доріжка перероблена мною в 5.1
Особиста оцінка: 10 - без зайвих вагань рекомендую всім!


Срібний реліз (на рейтинг впливає 50% завантаженого)
 Трекер:    Зареєстрований   

Завантажити / скачати фільм українською



відео для новачків



 Зареєстрований:   2012-04-11 00:53
 Розмір:   4.27 GB 
 Оцінка фільму:   9.9/10 (Голосів: 16)
   
Ваш часовий пояс: GMT + 2 Години

Нова тема   Відповісти