Завантажити та скачати торренти українською


Зруйновані замки / Brokedown palace (1999)

Нові коментарі

Нова тема   Відповісти
Останній раз роздавалося don pedro (2016-11-02)
Автор Повідомлення
Andriy063 
Відео Гуртом - підтримка та поширення
Відео Гуртом - підтримка та поширення


З нами з: 26.09.10
Востаннє: 07.12.16
Повідомлень: 371

2012-04-10 23:09  
Зруйновані замки / Brokedown palace (1999)

Зруйновані замки / Brokedown palace (1999)


Жанр: трилер, драма
Країна: США



Кіностудія / кінокомпанія: XX Століття фокс
Режисер: Джонатан Каплан
Актори: Клер Дейнс, Кейт Бекінсейл, Біл Пулман, Жаклін Кім, Лу Дайемонд Філіпс, Деніел Лапейн, Том Амандес, Аймі Грем, Джон Доу, Кей Тонг Лім

Сюжет:
Дві подружки Еліс Марано і Дарлін Девіс вирішили поїхати в Таїланд і відсвяткувати закінчення середньої школи. Сонце, море, екзотика і ... новий знайомий, чарівний австралієць Нік Паркс - веселий, загадковий і викликає безмежну довіру.
Закоханість і нерозсудливість затьмарюють здоровий ґлузд, і, піддавшись умовлянням Ніка, подружки відправляються на уік-енд в Гонконг. Казкова подорож обертається кошмарним сном: прямо з аеропорту дівчата потрапляють до таїландської в'язниці: в рюкзаку Еліс виявлений героїн ...


Тривалість: 01:36:27
Якість:
Відео:
кодек:
розмір кадру: 720 х 304
бітрейт: 683 кб/с

Аудіо:
мова: українська
переклад: двоголосий закадровий
кодек: MP3
бітрейт: 256 кб/с

Джерело озвучення:
Звіт MediaInfo

General
Complete name : C:\Users\Andriy063\Desktop\Brokedown palace [Зруйновані замки] (1999).avi
Format : AVI
Format/Info : Audio Video Interleave
File size : 654 MiB
Duration : 1h 36mn
Overall bit rate : 948 Kbps
Writing application : VirtualDubMod 1.5.10.2 (build 2540/release)
Writing library : VirtualDubMod build 2540/release
TCOD : 0
TCDO : 57877200000

Video
ID : 0
Format : MPEG-4 Visual
Format profile : Advanced [email protected]
Format settings, BVOP : 2
Format settings, QPel : No
Format settings, GMC : No warppoints
Format settings, Matrix : Default (H.263)
Muxing mode : Packed bitstream
Codec ID :
Codec ID/Hint :
Duration : 1h 36mn
Bit rate : 683 Kbps
Width : 720 pixels
Height : 304 pixels
Display aspect ratio : 2.35:1
Frame rate : 25.000 fps
Color space : YUV
Chroma subsampling : 4:2:0
Bit depth : 8 bits
Scan type : Progressive
Compression mode : Lossy
Bits/(Pixel*Frame) : 0.125
Stream size : 471 MiB (72%)
Writing library : 64

Audio
ID : 1
Format : MPEG Audio
Format version : Version 1
Format profile : Layer 3
Codec ID : 55
Codec ID/Hint : MP3
Duration : 1h 36mn
Bit rate mode : Constant
Bit rate : 256 Kbps
Channel(s) : 2 channels
Sampling rate : 44.1 KHz
Compression mode : Lossy
Stream size : 177 MiB (27%)
Alignment : Split accross interleaves
Interleave, duration : 40 ms (1.00 video frame)
Interleave, preload duration : 500 ms
Скріншоти



Подяка за запис звуку пану urij546724

Джерело:
Особиста оцінка: 8 - мені сподобалося


Срібний реліз (на рейтинг впливає 50% завантаженого)
 Трекер:    Зареєстрований   

Завантажити / скачати фільм українською



відео для новачків



 Зареєстрований:   2012-04-10 23:12
 Розмір:   654 MB 
 Оцінка фільму:   9.6/10 (Голосів: 11)
   
Інші релізи
don pedro 
Попереджень: 1
Попереджень: 1 


З нами з: 29.06.11
Востаннє: 07.12.16
Повідомлень: 8761

2012-04-11 00:28  
Дякую за ще одну стрічку з Кейт Бекінсейл. Але як якість? Менше 700 мегабайт на повнометражний фільм...
lasmen 
VIP


З нами з: 08.12.11
Востаннє: 11.08.13
Повідомлень: 625

2012-04-11 00:33  
мабудь, кращого і немає, знайшов DVD 4.9гб, але я не думаю, що там бкде краща якість.
Фільм знайомий мені, мабудь дивився давно

Andriy063 
Відео Гуртом - підтримка та поширення
Відео Гуртом - підтримка та поширення


З нами з: 26.09.10
Востаннє: 07.12.16
Повідомлень: 371

2012-04-11 13:33  
lasmen
lasmen написано:
мабудь дивився давно

мабуть пишеться через ''т'' Happy

ValTriK 
Поважний учасник


З нами з: 18.12.11
Востаннє: 16.11.16
Повідомлень: 238

2012-04-11 13:49  
lasmen
На ДВД буде дещо краща якість, бо це є ріп з того самого ДВД. Але ще є трохи кращий , розмір якого 1.45гб.
Цитата:
720x304, 25 fps, 1694 kbps, 0.31 b/p

lasmen 
VIP


З нами з: 08.12.11
Востаннє: 11.08.13
Повідомлень: 625

2012-04-11 19:50  
Andriy063 Ну і... Мождливо два бала поставете мені
Andriy063 
Відео Гуртом - підтримка та поширення
Відео Гуртом - підтримка та поширення


З нами з: 26.09.10
Востаннє: 07.12.16
Повідомлень: 371

2012-04-11 19:53  
lasmen
+
lasmen написано:
Мождливо два бала поставете мені


Ні. 1 Wide grin

Віктор 
Відео Гуртом - субтитрування
Відео Гуртом - субтитрування


З нами з: 09.01.10
Востаннє: 07.12.16
Повідомлень: 8663

2012-04-11 19:55  
А хто звук записував і синхронізовував?
Andriy063 
Відео Гуртом - підтримка та поширення
Відео Гуртом - підтримка та поширення


З нами з: 26.09.10
Востаннє: 07.12.16
Повідомлень: 371

2012-04-11 20:02  
w2958l
записував urij546724
зводив я

Tarasyk 
Відео Гуртом - фільмокрай
Відео Гуртом - фільмокрай


З нами з: 26.08.09
Востаннє: 28.11.16
Повідомлень: 5972

2012-04-11 20:18  
Andriy063, замініть ріп. На рутрекері є на 1,45.
Цей нікудишній.

Ella1 
Свій


З нами з: 25.12.09
Востаннє: 07.12.16
Повідомлень: 67

2012-04-11 21:51  
Знову "Бангкок-Хілтон"...
Ваш часовий пояс: GMT + 2 Години

Нова тема   Відповісти