Завантажити та скачати торренти українською


Лицар дня [Розширена версія] / Knight and Day [Extended Cut] (2010) 720p | Sub Ukr/Eng

Нові коментарі

Нова тема   Відповісти
Автор Повідомлення
Zeus62 
Відео Гуртом - команда HD
Відео Гуртом - команда HD


З нами з: 29.12.08
Востаннє: 16.11.16
Повідомлень: 330

2012-04-10 00:57  
Лицар дня [Розширена версія] / Knight and Day [Extended Cut] (2010) 720p | Sub Ukr/Eng

Лицар дня [Розширена версія] / Knight and Day [Extended Cut] (2010) 720p | Sub Ukr/Eng


Жанр: бойовик, комедія, трилер, пригодницький
Країна: США



Кіностудія / кінокомпанія: Twentieth Century Fox
Режисер: Джеймс Менголд
Актори: Том Круз, Кемерон Діаз, Пітер Сарсгаард, Жорді Молья, Віола Девіс, Пол Дано, Фальк Хеншель, Марк Блукас, Ленні Лофтін, Меггі Грейс

Сюжет:
Головна героїня, самотня жінка Джун, намагається знайти щастя в особистому житті. Але вона навряд чи чекала, чим обернеться чергове побачення з потенційним кандидатом Мілнер. Він виявляється справжнім шпигуном і прихоплює Джун з собою в досить жорстку подорож навколо світу з метою захистити таємницю джерела безперебійної енергії.


Тривалість: 01:57:07
Якість:
Відео:
кодек:
розмір кадру: 1280 х 528
бітрейт: 4897 кб/с

Аудіо:
мова: українська
переклад: професійний дубльований
кодек: 5.1
бітрейт: 448 кб/с

Субтитри #1:
мова: українська(форсовані)
тип: програмні (м'які)
формат: *.srt

Субтитри #2:
мова: українська(повні)
тип: програмні (м'які)
формат: *.srt

Субтитри #3:
мова: англійська(повні)
тип: програмні (м'які)
формат: *.srt
MediaInfo:

File size : 4.37 GiB
Duration : 1h 57mn
Overall bit rate : 5 336 Kbps
Encoded date : UTC 2012-04-09 23:27:18
Writing application : mkvmerge v5.5.0 ('Healer') built on Apr 7 2012 12:04:29
Writing library : libebml v1.2.2 + libmatroska v1.3.0

Video
ID : 1
Format : AVC
Format/Info : Advanced Video Codec
Format profile : [email protected]
Format settings, CABAC : Yes
Format settings, ReFrames : 16 frames
Codec ID : V_MPEG4/ISO/AVC
Duration : 1h 57mn
Bit rate : 4 897 Kbps
Width : 1 280 pixels
Height : 528 pixels
Display aspect ratio : 2.40:1
Frame rate mode : Variable
Frame rate : 23.976 fps
Color space : YUV
Chroma subsampling : 4:2:0
Bit depth : 8 bits
Scan type : Progressive
Bits/(Pixel*Frame) : 0.302
Stream size : 3.91 GiB (90%)
Title : For Hurtom by Zeus62
Writing library : core 112
Encoding settings : cabac=1 / ref=16 / deblock=1:-3:-3 / analyse=0x3:0x113 / me=umh / subme=10 / psy=1 / psy_rd=1,00:0,00 / mixed_ref=1 / me_range=64 / chroma_me=1 / trellis=2 / 8x8dct=1 / cqm=0 / deadzone=21,11 / fast_pskip=1 / chroma_qp_offset=-2 / threads=9 / sliced_threads=0 / nr=0 / decimate=1 / interlaced=0 / constrained_intra=0 / bframes=16 / b_pyramid=2 / b_adapt=2 / b_bias=0 / direct=1 / weightb=1 / open_gop=0 / weightp=2 / keyint=240 / keyint_min=23 / scenecut=40 / intra_refresh=0 / rc_lookahead=50 / rc=2pass / mbtree=1 / bitrate=4897 / ratetol=1,0 / qcomp=0,60 / qpmin=3 / qpmax=51 / qpstep=4 / cplxblur=20,0 / qblur=0,5 / ip_ratio=1,40 / aq=1:1,00
Language : Ukrainian
Default : Yes
Forced : No
Color primaries : BT.709-5, BT.1361, IEC 61966-2-4, SMPTE RP177
Transfer characteristics : BT.709-5, BT.1361
Matrix coefficients : BT.709-5, BT.1361, IEC 61966-2-4 709, SMPTE RP177

Audio
ID : 2
Format : AC-3
Format/Info : Audio Coding 3
Mode extension : CM (complete main)
Codec ID : A_AC3
Duration : 1h 57mn
Bit rate mode : Constant
Bit rate : 448 Kbps
Channel(s) : 6 channels
Channel positions : Front: L C R, Side: L R, LFE
Sampling rate : 48.0 KHz
Bit depth : 16 bits
Compression mode : Lossy
Stream size : 375 MiB (8%)
Title : 448 kb/s Blu-Ray
Language : Ukrainian
Default : Yes
Forced : No

Text #1
ID : 3
Format : UTF-8
Codec ID : S_TEXT/UTF8
Codec ID/Info : UTF-8 Plain Text
Title : Форсовані
Language : Ukrainian
Default : No
Forced : No

Text #2
ID : 4
Format : UTF-8
Codec ID : S_TEXT/UTF8
Codec ID/Info : UTF-8 Plain Text
Title : Повні
Language : Ukrainian
Default : No
Forced : No

Text #3
ID : 5
Format : UTF-8
Codec ID : S_TEXT/UTF8
Codec ID/Info : UTF-8 Plain Text
Title : Повні
Language : English
Default : No
Forced : No
Скріншоти:



Джерело: Власний ріп +
Особиста оцінка: 10 - без зайвих вагань рекомендую всім!


 Трекер:    Зареєстрований   

Завантажити / скачати фільм українською



відео для новачків



 Зареєстрований:   2012-04-10 01:34
 Розмір:   4.37 GB 
 Оцінка фільму:   9.8/10 (Голосів: 17)
   
Інші релізи
Zeus62 
Відео Гуртом - команда HD
Відео Гуртом - команда HD


З нами з: 29.12.08
Востаннє: 16.11.16
Повідомлень: 330

2012-04-10 01:11  
Випадково видалив лог кодування і Блу-рей, тому показати лог і порівняльні скріншоти не маю змоги.
braveboy 
Відео Гуртом - команда HD
Відео Гуртом - команда HD


З нами з: 15.06.10
Востаннє: 29.10.16
Повідомлень: 958

2012-04-10 01:11  
Zeus62
маю укр. саби

Zeus62 
Відео Гуртом - команда HD
Відео Гуртом - команда HD


З нами з: 29.12.08
Востаннє: 16.11.16
Повідомлень: 330

2012-04-10 01:14  
braveboy,
скинь мені їх будь ласка. я додам до фільму.

braveboy 
Відео Гуртом - команда HD
Відео Гуртом - команда HD


З нами з: 15.06.10
Востаннє: 29.10.16
Повідомлень: 958

2012-04-10 01:14  
Zeus62 
Відео Гуртом - команда HD
Відео Гуртом - команда HD


З нами з: 29.12.08
Востаннє: 16.11.16
Повідомлень: 330

2012-04-10 01:16  
braveboy,
дякую

braveboy 
Відео Гуртом - команда HD
Відео Гуртом - команда HD


З нами з: 15.06.10
Востаннє: 29.10.16
Повідомлень: 958

2012-04-10 01:56  
Zeus62 написано:

braveboy,
дякую


you're welcome Happy

Додано через 35 хвилин 51 секунду:

Zeus62 написано:
2x

цього не потрібно

Zeus62 
Відео Гуртом - команда HD
Відео Гуртом - команда HD


З нами з: 29.12.08
Востаннє: 16.11.16
Повідомлень: 330

2012-04-10 02:02  
Цитата:
2x
цього не потрібно

ок

leroykendall 
Модератор HD


З нами з: 03.01.11
Востаннє: 20.11.16
Повідомлень: 749

2012-04-10 07:02  
Правила оформлення відео-релізу
Цитата:
2. Назва
...
Якщо мова тільки українська, її не вказуємо.

720p Ukr
"Ukr" треба прибрати.

Zeus62 
Відео Гуртом - команда HD
Відео Гуртом - команда HD


З нами з: 29.12.08
Востаннє: 16.11.16
Повідомлень: 330

2012-04-10 08:00  
Цитата:
720p Ukr
"Ukr" треба прибрати.

Якщо я приберу Ukr, то по назві буде схоже наче фільм без перекладу, тільки з субтитрами.

speedwaykaskad 
Відео Гуртом - фільмокрай
Відео Гуртом - фільмокрай


З нами з: 02.11.11
Востаннє: 03.12.16
Повідомлень: 125

2012-04-10 10:28  
Zeus62
Цитата:
в досить жорстке подорож навколо світу


Виправ

Zeus62 
Відео Гуртом - команда HD
Відео Гуртом - команда HD


З нами з: 29.12.08
Востаннє: 16.11.16
Повідомлень: 330

2012-04-10 16:38  
Цитата:
Виправ

Виправлено

leroykendall 
Модератор HD


З нами з: 03.01.11
Востаннє: 20.11.16
Повідомлень: 749

2012-04-10 23:22  
Zeus62 написано:
Якщо я приберу Ukr, то по назві буде схоже наче фільм без перекладу, тільки з субтитрами.

Так, справді буде схоже на субтитроване.
Але правила - є правила.
Закриваючи очі на відсутність лога кодування та порівняльних скріншотів.

Zeus62 
Відео Гуртом - команда HD
Відео Гуртом - команда HD


З нами з: 29.12.08
Востаннє: 16.11.16
Повідомлень: 330

2012-04-11 09:47  
Цитата:
Так, справді буде схоже на субтитроване.
Але правила - є правила.
Закриваючи очі на відсутність лога кодування та порівняльних скріншотів.

Ну добре. Я зміню.

mrsbc 
Частий відвідувач


З нами з: 21.11.08
Востаннє: 03.12.16
Повідомлень: 29

2014-06-25 20:09  
додайте, б-ласка, швидкості
Ваш часовий пояс: GMT + 2 Години

Нова тема   Відповісти