Завантажити та скачати торренти українською


Старий Новий рік / New Year's Eve (2011) 720p Ukr/Eng | Sub Eng | Ліцензія

Нові коментарі

Нова тема   Відповісти
Автор Повідомлення
Anonymous 







2012-04-09 18:18  
Старий Новий рік / New Year's Eve (2011) 720p Ukr/Eng | Sub Eng | Ліцензія

Старий Новий рік / New Year's Eve (2011) 720p Ukr/Eng | Sub Eng | Ліцензія
Інші постери:
Старий Новий рік / New Year's Eve (2011) 720p Ukr/Eng | Sub Eng | Ліцензія
Старий Новий рік / New Year's Eve (2011) 720p Ukr/Eng | Sub Eng | Ліцензія


Жанр: романтична комедія
Країна: США



Кіностудія / кінокомпанія: New Line Cinema, Rice Films, Karz Entertainment
Режисер: Гаррі Маршалл
Актори: Холлі Беррі, Джесіка Біл, Джон Бон Джові, Ебігейл Бреслін, Лудакріс, Роберт Де Ніро, Джош Дюамель, Зак Ефрон, Гектор Елізондо, Кетрін Хайгл, Мішель Пфайффер, Сара Джессіка Паркер, Тіль Швайгер, Хіларі Суенк, Алісса Мілано, Джеймс Белуші

Сюжет:
Герої фільму - жителі міста, які ніколи не сплять. Нью-Йорк в період новорічних свят переплете життя кількох героїв: вмираючої в лікарні літньої людини, секретарки, що вирішила здійснити дані собі обіцянки, продюсера знаменитого новорічного шоу на Тайм Сквер, людини, яка взагалі ненавидить це свято.


Тривалість: 01:57:55
Якість:
Відео:
кодек:
розмір кадру: 1280х720
бітрейт: 4991 кб/с

Аудіо # 1:
мова: українська
переклад: професійний дубльований
кодек: 5.1
бітрейт: 384 кб/с

Аудіо # 2:
мова: англійська
переклад: оригінал
кодек: 5.1
бітрейт: 1510 кб/с

Джерело озвучення:


Субтитри:
мова: англійська
тип: програмні (м'які)
формат: *.srt

Подяка за надану укр-у звукову доріжку sstonecold1

MediaInfo

Format : Matroska
File size : 5.79 GiB
Duration : 1h 57mn
Overall bit rate : 7 025 Kbps
Movie name : New Year's Eve (2011) 720p Ukr,Eng Sub Eng
Encoded date : UTC 2012-04-09 16:03:22
Writing application : mkvmerge v2.4.2 ('Oh My God') built on Jan 18 2009 17:30:28
Writing library : libebml v0.7.7 + libmatroska v0.8.1
Video #1
ID : 1
Format : AVC
Format/Info : Advanced Video Codec
Format profile : [email protected]
Format settings, CABAC : Yes
Format settings, ReFrames : 5 frames
Muxing mode : Container [email protected]
Codec ID : V_MPEG4/ISO/AVC
Duration : 1h 57mn
Bit rate : 4 991 Kbps
Nominal bit rate : 5 130 Kbps
Width : 1 280 pixels
Height : 720 pixels
Display aspect ratio : 16:9
Frame rate : 23.976 fps
Resolution : 24 bits
Colorimetry : 4:2:0
Scan type : Progressive
Bits/(Pixel*Frame) : 0.226
Stream size : 4.11 GiB (71%)
Title : New Year's Eve (2011) 720p Ukr,Eng Sub Eng
Writing library : core 122 r2184 5c85e0a
Encoding settings : cabac=1 / ref=5 / deblock=1:-1:-1 / analyse=0x3:0x133 / me=umh / subme=7 / psy=1 / psy_rd=1.00:0.15 / mixed_ref=1 / me_range=16 / chroma_me=1 / trellis=1 / 8x8dct=1 / cqm=0 / deadzone=21,11 / fast_pskip=0 / chroma_qp_offset=-3 / threads=12 / sliced_threads=0 / nr=0 / decimate=1 / interlaced=0 / bluray_compat=0 / constrained_intra=0 / bframes=3 / b_pyramid=2 / b_adapt=1 / b_bias=0 / direct=3 / weightb=1 / open_gop=0 / weightp=2 / keyint=240 / keyint_min=23 / scenecut=40 / intra_refresh=0 / rc_lookahead=40 / rc=2pass / mbtree=1 / bitrate=5130 / ratetol=1.0 / qcomp=0.60 / qpmin=10 / qpmax=69 / qpstep=4 / cplxblur=20.0 / qblur=0.5 / ip_ratio=1.40 / aq=1:1.00
Language : English
Audio #2
ID : 2
Format : AC-3
Format/Info : Audio Coding 3
Codec ID : A_AC3
Duration : 1h 57mn
Bit rate mode : Constant
Bit rate : 384 Kbps
Channel(s) : 6 channels
Channel positions : Front: L C R, Surround: L R, LFE
Sampling rate : 48.0 KHz
Stream size : 324 MiB (5%)
Language : Ukrainian
Audio #3
ID : 3
Format :
Format/Info : Digital Theater Systems
Codec ID : A_DTS
Duration : 1h 57mn
Bit rate mode : Constant
Bit rate : 1 510 Kbps
Channel(s) : 6 channels
Channel positions : Front: L C R, Surround: L R, LFE
Sampling rate : 48.0 KHz
Resolution : 24 bits
Video delay : 11ms
Stream size : 1.24 GiB (21%)
Language : English
Text #4
ID : 4
Format : UTF-8
Codec ID : S_TEXT/UTF8
Codec ID/Info : UTF-8 Plain Text
Language : English
Скріншоти




Джерело:
Особиста оцінка: не дивився


 Трекер:    Зареєстрований   

Завантажити / скачати фільм українською



відео для новачків



 Зареєстрований:   2012-04-09 18:18
 Розмір:   5.79 GB 
 Оцінка фільму:   8.6/10 (Голосів: 9)
   
Інші релізи
waldi-hurtom 
VIP


З нами з: 07.10.12
Востаннє: 10.12.16
Повідомлень: 613

2013-02-04 11:02  
Перепрошую, але до чого тут старий новий рік? Назву фільма можна перекласти як 31 грудня або Напередодні Нового Року або просто Новий Рік чи Новорічна метушня. Навіщо притягувати сюди совдепівській нонсенс старий новий? Навіщо мавпувати помилки кацапського перекладу? Один невіглас одним оком побачив в словнику замість напередодні(канун) сочельник і подумав, що це старий новий рік, про тлумачний словник невігласи не чули. Але ж нащо копіювати усім? Де редактори, та просто елементарно письменні люди? Не знаєш англійської, то хоч фільм одним оком подивись. Чи всім пофіг? Тоді чом не назвати фільм Зоопарком? Теж весело.

Що стосується самого фільму - легкий, світлий, приємний в перегляді. Зірковий склад не дуже проявився, для самих акторів це виглядає як приємна тусня. Схоже, американці потроху переймають новорічну естафету від совка, тільки без олів'є. Не забудьте подивитись ляпи в кінці з титрами. Гарний новорічний фільм. 7 балів.

Ваш часовий пояс: GMT + 2 Години

Нова тема   Відповісти