Завантажити та скачати торренти українською


3:10 до Юми. Потяг до Юми / Потяг на Юму / 3:10 to Yuma (2007) 720p 2xUkr/Eng | Sub Eng

Нові коментарі

Нова тема   Відповісти
Автор Повідомлення
Віктор 
Відео Гуртом - субтитрування
Відео Гуртом - субтитрування


З нами з: 09.01.10
Востаннє: 02.12.16
Повідомлень: 8661

2012-04-08 20:24  
3:10 до Юми. Потяг до Юми / Потяг на Юму / 3:10 to Yuma (2007) 720p 2xUkr/Eng | Sub Eng

3:10 до Юми. Потяг до Юми / Потяг на Юму / 3:10 to Yuma (2007) 720p 2xUkr/Eng | Sub Eng

«Time waits for one man »


Жанр: бойовик, кримінальний, драма
Країна: США



Кіностудія / кінокомпанія: Lionsgate, Tree Line Films, Relativity Media
Режисер: Джеймс Манґольд (James Mangold)
Композитор: Марко Белтрамі (Marco Beltrami)
Актори: Расел Кроу (Russell Crowe), Крістіан Бейл (Christian Bale), Лоґан Лермен (Logan Lerman), Далас Робертс (Dallas Roberts), Бен Фостер (Ben Foster), Пітер Фонда (Peter Fonda), Вінеса Шоу (Vinessa Shaw), Кевін Дюранд (Kevin Durand), Люк Вілсон (Luke Wilson) та інші.

Сюжет:
Після арешту відомого бандита Бена Вейда, його банда продовжує загрожувати місцевим мешканцям. Ветеран Громадянської війни і власник невеликого ранчо Ден Еванс погоджується таємно доставити Вейда в найближче місто із залізничною станцією, щоб того відвезли поїздом до форту Юма. Та щойно вони зупиняються в готелі, як стає очевидним, що таємниця розкрита, і за обома починається полювання...
MediaInfo

Код:
General
Unique ID                        : 177263524468429669145595889443016541203 (0x855BB685FF50435FB493F683152C0413)
Complete name                    : D:\HURTOM\3.10 to Yuma (2007) [2xUkr, Eng] 720p [Hurtom].mkv
Format                           : Matroska
Format version                   : Version 2
File size                        : 6.55 GiB
Duration                         : 2h 2mn
Overall bit rate                 : 7 654 Kbps
Movie name                       : 3:10 to Yuma (2007) [2xUkr, Eng] 720p [Hurtom]
Encoded date                     : UTC 2012-04-08 19:31:35
Writing application              : mkvmerge v5.0.1 ('Es ist Sommer') built on Oct  9 2011 11:55:43
Writing library                  : libebml v1.2.2 + libmatroska v1.3.0

Video
ID                               : 1
Format                           : AVC
Format/Info                      : Advanced Video Codec
Format profile                   : [email protected]
Format settings, CABAC           : Yes
Format settings, ReFrames        : 11 frames
Codec ID                         : V_MPEG4/ISO/AVC
Duration                         : 2h 2mn
Bit rate                         : 6 245 Kbps
Width                            : 1 280 pixels
Height                           : 534 pixels
Display aspect ratio             : 2.40:1
Frame rate                       : 23.976 fps
Color space                      : YUV
Chroma subsampling               : 4:2:0
Bit depth                        : 8 bits
Scan type                        : Progressive
Bits/(Pixel*Frame)               : 0.381
Stream size                      : 5.21 GiB (80%)
Title                            : 3:10 to Yuma (2007) [2xUkr, Eng] 720p [Hurtom]
Writing library                  : core 113 r1884 7313bb5
Encoding settings                : cabac=1 / ref=11 / deblock=1:-3:-3 / analyse=0x3:0x113 / me=esa / subme=10 / psy=1 / psy_rd=1.00:0.00 / mixed_ref=1 / me_range=32 / chroma_me=1 / trellis=2 / 8x8dct=1 / cqm=0 / deadzone=21,11 / fast_pskip=0 / chroma_qp_offset=-2 / threads=12 / sliced_threads=0 / nr=0 / decimate=1 / interlaced=0 / constrained_intra=0 / bframes=10 / b_pyramid=2 / b_adapt=2 / b_bias=0 / direct=3 / weightb=1 / open_gop=0 / weightp=2 / keyint=250 / keyint_min=23 / scenecut=40 / intra_refresh=0 / rc_lookahead=60 / rc=2pass / mbtree=0 / bitrate=6245 / ratetol=1.0 / qcomp=0.70 / qpmin=10 / qpmax=51 / qpstep=4 / cplxblur=20.0 / qblur=0.5 / vbv_maxrate=50000 / vbv_bufsize=62500 / nal_hrd=none / ip_ratio=1.40 / pb_ratio=1.30 / aq=1:1.00
Language                         : English
Default                          : Yes
Forced                           : No
Matrix coefficients              : BT.709-5, BT.1361, IEC 61966-2-4 709, SMPTE RP177

Audio #1
ID                               : 2
Format                           : AC-3
Format/Info                      : Audio Coding 3
Mode extension                   : CM (complete main)
Codec ID                         : A_AC3
Duration                         : 2h 2mn
Bit rate mode                    : Constant
Bit rate                         : 384 Kbps
Channel(s)                       : 6 channels
Channel positions                : Front: L C R, Side: L R, LFE
Sampling rate                    : 48.0 KHz
Bit depth                        : 16 bits
Compression mode                 : Lossy
Stream size                      : 336 MiB (5%)
Title                            : 5.1 @ 384 kbps - багатоголосий закадровий Так Треба Продакшн
Language                         : Ukrainian
Default                          : Yes
Forced                           : No

Audio #2
ID                               : 3
Format                           : AC-3
Format/Info                      : Audio Coding 3
Mode extension                   : CM (complete main)
Codec ID                         : A_AC3
Duration                         : 2h 2mn
Bit rate mode                    : Constant
Bit rate                         : 384 Kbps
Channel(s)                       : 6 channels
Channel positions                : Front: L C R, Side: L R, LFE
Sampling rate                    : 48.0 KHz
Bit depth                        : 16 bits
Compression mode                 : Lossy
Stream size                      : 336 MiB (5%)
Title                            : 5.1 @ 384 kbps - багатоголосий закадровий  запис звуку з ТРК Україна
Language                         : Ukrainian
Default                          : No
Forced                           : No

Audio #3
ID                               : 4
Format                           : AC-3
Format/Info                      : Audio Coding 3
Mode extension                   : CM (complete main)
Codec ID                         : A_AC3
Duration                         : 2h 2mn
Bit rate mode                    : Constant
Bit rate                         : 640 Kbps
Channel(s)                       : 6 channels
Channel positions                : Front: L C R, Side: L R, LFE
Sampling rate                    : 48.0 KHz
Bit depth                        : 16 bits
Compression mode                 : Lossy
Stream size                      : 561 MiB (8%)
Title                            : EX 5.1 @ 640 kbps
Language                         : English
Default                          : No
Forced                           : No

Text
ID                               : 5
Format                           : UTF-8
Codec ID                         : S_TEXT/UTF8
Codec ID/Info                    : UTF-8 Plain Text
Language                         : English
Default                          : No
Forced                           : No

Menu
00:00:00.000                     : en:00:00:00.000
00:07:32.285                     : en:00:07:32.285
00:14:14.771                     : en:00:14:14.771
00:19:05.936                     : en:00:19:05.936
00:30:23.447                     : en:00:30:23.447
00:36:40.698                     : en:00:36:40.698
00:45:13.794                     : en:00:45:13.794
00:51:59.033                     : en:00:51:59.033
00:57:35.285                     : en:00:57:35.285
01:05:47.026                     : en:01:05:47.026
01:16:53.859                     : en:01:16:53.859
01:24:57.968                     : en:01:24:57.968
01:35:10.371                     : en:01:35:10.371
01:43:55.896                     : en:01:43:55.896
01:50:31.583                     : en:01:50:31.583
01:54:52.135                     : en:01:54:52.135
Релізи та інформація про озвучення/дублювання

720p 2xUkr/Eng | Sub Eng (6.55 GB) - багатоголосий закадровий Так Треба Продакшн на замовлення Аврора-дистриб'юшен і багатоголосий закадровий (мабуть Студія "Мова") запис звуку з ТРК Україна
[url=] 2xUkr/Eng | Sub Eng ( GB)[/url] -

Про озвучення від Так Треба Продакшн
Ролі озвучили: Володимир Терещук?, Олег Стальчук, Юрій Ребрик?, і один чи два жіночих.

Про озвучення від (мабуть Студія "Мова") запис звуку з ТРК Україна
Ролі озвучили: Михайло Кришталь, Микола Говор і ще хтось
Тривалість: 02:02:30
Якість: 720p (HANSMER)
Відео:
кодек:
розмір кадру: 1280x534
бітрейт: 6245 кб/с

Аудіо # 1:
мова: українська
переклад: багатоголосий закадровий Так Треба Продакшн на замовлення Аврора-дистриб'юшен звук записано з 1+1 | Ролі озвучили: Рассел Кроу/Бен Вейд - Олег Стальчук та інші. (по ТВІ була аналогічна озвучка)
кодек: 5.1
бітрейт: 384 кб/с

Аудіо # 2:
мова: українська
переклад: багатоголосий закадровий (мабуть Студія "Мова") запис звуку з ТРК Україна
кодек: 5.1
бітрейт: 384 кб/с

Аудіо # 3:
мова: анґлійська
переклад: ориґінал
кодек: EX 5.1
бітрейт: 640 кб/с

Субтитри:
мова: анґлійська
тип: програмні (м’які)
формат: *.srt

Скріншоти:





За синхронізацію українських доріжок і запис звуку з 1+1 подяка Romario_O,
за запис звуку з ТРК Україна подяка xslim


Джерело:
Особиста оцінка: 7


 Трекер:    Зареєстрований   

Завантажити / скачати фільм українською



відео для новачків



 Зареєстрований:   2012-04-08 21:56
 Розмір:   6.55 GB 
 Оцінка фільму:   8/10 (Голосів: 28)
   
bot 
робот


З нами з: 30.09.07
Востаннє: 26.05.05
Повідомлень: 15966

2012-04-08 21:55  
Тему перенесено з Анонси релізів від Відео Гуртом до форуму Фільми в HD


w2958l

mega_babak 
Новенький


З нами з: 05.05.10
Востаннє: 02.12.16
Повідомлень: 3

2012-04-09 06:38  
фільм, в загалі-то, дуже хороший! Якісний вестерн!
merlot 
Частий відвідувач


З нами з: 19.03.11
Востаннє: 30.11.16
Повідомлень: 32

2012-04-09 16:10  
не погоджуюся з 7 для мене 9
INTER-FAN 
Свій


З нами з: 25.01.10
Востаннє: 30.11.16
Повідомлень: 60

2016-07-17 21:06  
Чудове кіно. Кроу, Бейл і скажені очі Бена Фостера... і ще пінкертонець сподобався. 3:10 до Юми - смакота.
melomans 
Новенький


З нами з: 12.12.10
Востаннє: 05.11.16
Повідомлень: 1

2016-08-06 14:35  
Де можна знайти субтитри українською мовою до цього фільму?
Ваш часовий пояс: GMT + 2 Години

Нова тема   Відповісти