Завантажити та скачати торренти українською


ДахаБраха та Port Mone - Хмелева project (2012) [FLAC] | EthnoChaos / World-music

Нові коментарі

Нова тема   Відповісти
Автор Повідомлення
ssTAss 
Модератор музики


З нами з: 05.07.08
Востаннє: 06.12.16
Повідомлень: 10946

2012-04-07 21:46  
ДахаБраха та Port Mone - Хмелева project (2012) [FLAC] | EthnoChaos / World-music

ДахаБраха та Port Mone - Хмелева project (2012) [FLAC] | EthnoChaos / World-music


Стиль: EthnoChaos / World-music
Країна, місто: Україна, Київ / Білорусь, Мінськ
Сайти: Офіційний сайт
Видавець: Наш Формат
Виконавці:
    ДахаБраха:
    Ірина Коваленко — вокал, джамбе, перкусія, басовий барабан, жалійка, волинка, флейта, бугай, аккордеон
    Марко Галаневич — вокал, дарбука, табла, діджеріду, тромбон, аккордеон
    Олена Цибульська — вокал, перкусія, басовий барабан, гармошка
    Ніна Гаренецька — вокал, віолончель, басовий барабан
    PortMone:
    Олексій Ворсоба - акордеон
    Сергій Кравченко - перкусія
    Олексій Ванчук - бас-гітара
    Андрій Жуков - звукорежисер

Пісні:
    1 - Кпини
    2 - Веснянки
    3 - Дубе кучерaвий
    4 - Ванюша
    5 - Ой упав сніжок
    6 - Дядо
    7 - Єлена
    8 - Кривий танець
    9 - Тонке дерево
log
Exact Audio Copy V1.0 beta 3 from 29. August 2011

Отчёт EAC об извлечении, выполненном 30. марта 2012, 1:28

DАХАБРАХА & PORT MONE / Хмелева project

Дисковод: PLEXTOR DVDR PX-750A Adapter: 4 ID: 0

Режим чтения : Достоверность
Использование точного потока : Да
Отключение кэша аудио : Да
Использование указателей C2 : Нет

Коррекция смещения при чтении : 102
Способность читать области Lead-in и Lead-out : Нет
Заполнение пропущенных сэмплов тишиной : Да
Удаление блоков с тишиной в начале и конце : Нет
При вычислениях CRC использовались нулевые сэмплы : Да
Интерфейс : Установленный внешний ASPI-интерфейс

Выходной формат : Внутренние WAV-операции
Формат сэмплов : 44.100 Гц; 16 бит; стерео

TOC извлечённого CD

Трек | Старт | Длительность | Начальный сектор | Конечный сектор
---------------------------------------------------------------------
1 | 0:00.00 | 6:32.60 | 0 | 29459
2 | 6:32.60 | 9:12.55 | 29460 | 70914
3 | 15:45.40 | 5:23.45 | 70915 | 95184
4 | 21:09.10 | 10:48.12 | 95185 | 143796
5 | 31:57.22 | 6:54.27 | 143797 | 174873
6 | 38:51.49 | 2:36.67 | 174874 | 186640
7 | 41:28.41 | 5:47.34 | 186641 | 212699
8 | 47:16.00 | 6:11.03 | 212700 | 240527
9 | 53:27.03 | 10:42.20 | 240528 | 288697

Характеристики диапазона извлечения и сообщения об ошибках

Выбранный диапазон

Имя файла C:\Users\Константин\Desktop\1019\DАХАБРАХА & PORT MONE - Хмелева project.wav

Пиковый уровень 97.0 %
Скорость извлечения 5.2 X
Качество диапазона 100.0 %
CRC теста 5A4F2275
CRC копии 5A4F2275
Копирование... OK

Ошибок не произошло

Конец отчёта

==== Контрольная сумма отчёта F16545403ADE95C52FF041181715971FC2439E50770D42D27E5D670BA6C1009A ====
fooCDtect
fooCDtect - foobar2000 + auCDtect, baralgin.

auCDtect: CD records authenticity detector, version 0.8.2
Copyright (c) 2004 Oleg Berngardt. All rights reserved.
Copyright (c) 2004 Alexander Djourik. All rights reserved.

mode: 0

=======================================================
Track: 01 - Кпини
Quality: CDDA, 100%
=======================================================
Track: 02 - Веснянки
Quality: CDDA, 100%
=======================================================
Track: 03 - Дубе кучерявий
Quality: CDDA, 99%
=======================================================
Track: 04 - Ванюша
Quality: CDDA, 100%
=======================================================
Track: 05 - Ой упав сніжок
Quality: CDDA, 100%
=======================================================
Track: 06 - Дядо
Quality: CDDA, 100%
=======================================================
Track: 07 - Єлена
Quality: CDDA, 100%
=======================================================
Track: 08 - Кривий танець
Quality: CDDA, 100%
=======================================================
Track: 09 - Тонке дерево
Quality: CDDA, 100%
=======================================================
Тривалість: 01:04:09
Мова: українська
Аудіо-кодек: FLAC
Бітрейт: 796 кб/с
Джерело: інший трекер
Додаткова інформація:
Зима закінчуватиметься в ритмі етнічного мінімалізму і відчутті гармонії, що постала з хаосу. Дві золоті рибини, ДахаБраха з Києва і мінський ансамбль Port Mone, як знаки «інь» і «ян», підштовхуючи один одного, подовжують працювати над дивовижної краси спільною програмою. Це ще не новий жанр, але вже доволі відсторонений від сучасної музичної реальності світ. Їхній проект з’явився на світ майже рік тому, після тривалих репетицій, що проходили в Дністровському каньйоні в оточенні білосніжних заквітчаних дерев, пагорбів червоної глини і неспокійних весняних пташок. Через досить довгий відтинок часу музиканти зустрінуться знову, щоб показати більш осмислений, захопливий і динамічний варіант свого експериментального проекту. Спільний концертний тур ДахаБрахи і Port Mone наприкінці лютого і на початку березня стане мистецькою подією на стику музичних ідей, філософських думок і емоцій.

artvertep.com


Якщо Ви справді бажаєте підтримати українське - після прослуховування, якщо музика вам сподобалась,
придбайте ліцензійний диск.
Підтримаймо вітчизняних виконавців!


Срібний реліз (на рейтинг впливає 50% завантаженого)
 Трекер:    Зареєстрований   

Завантажити / скачати українську музику



відео для новачків



 Зареєстрований:   2012-04-07 21:46
 Розмір:   366 MB 
 Оцінка музики:   8.7/10 (Голосів: 21)
   
ssTAss 
Модератор музики


З нами з: 05.07.08
Востаннє: 06.12.16
Повідомлень: 10946

2012-04-07 21:49  
Khtos 
Свій


З нами з: 24.06.09
Востаннє: 02.12.16
Повідомлень: 107

2012-04-10 20:30  
ssTAss
Там лише 128 кб/с...

ssTAss 
Модератор музики


З нами з: 05.07.08
Востаннє: 06.12.16
Повідомлень: 10946

2012-04-10 21:17  
Khtos написано:
Там лише 128 кб/с...

зробіть в 320
або просіть автора релізу в мр3 нехай замінить на 320
наразі, що є..

Ваш часовий пояс: GMT + 2 Години

Нова тема   Відповісти