Завантажити та скачати торренти українською


Пограбування на Бейкер-Стріт / The Bank Job (2008) 720p 2xUkr/Eng | Sub Eng

Нові коментарі

Нова тема   Відповісти
Автор Повідомлення
braveboy 
Відео Гуртом - команда HD
Відео Гуртом - команда HD


З нами з: 15.06.10
Востаннє: 29.10.16
Повідомлень: 958

2012-04-06 05:53  

Пограбування на Бейкер-Стріт / The Bank Job (2008)
720p 2xUkr/Eng | Sub Eng


Пограбування на Бейкер-Стріт / The Bank Job (2008) 720p 2xUkr/Eng | Sub Eng

«The true story of a heist gone wrong... in all the right ways.»

Жанр: кримінальний, трилер
Країна: Велика Британія




Кіностудія / кінокомпанія: Mosaic Media Group
Режисер: Роджер Дональдсон (Roger Donaldson)
Актори: Джейсон Стетхем (Jason Statham), Саффрон Барроуз (Saffron Burrows), Стівен Кемпбел Мур (Stephen Campbell Moore), Деніел Мейс (Daniel Mays), Джеймс Фолкнер (James Faulkner)

Сюжет:
Стрічку засновано на реальних подіях, що відбувались у Великобританії у 1971 р. Тоді було здійснено одне з найбільш легендарних пограбувань банку в історії Англії, коли не було здійснено жодного арешту і не знайдено найменшого сліду вкрадених грошей. Наліт на банк на Бейкер-стріт був ініційований офіційними особами, які намагались дістатися до таємничої банківської комірки...



Тривалість: 1:52:01
Якість: 720p
Відео:
кодек:
розмір кадру: 1280 x 544
бітрейт: 4045 кб/с

Аудіо # 1:
мова: українська [1+1]
переклад: двоголосий закадровий
кодек: 5.1
бітрейт: 448 кб/с

Аудіо # 2:
мова: українська [NTN]
переклад: двоголосий закадровий
кодек: 5.1
бітрейт: 448 кб/с

Аудіо # 3:
мова: англійська
переклад: оригінал
кодек: 5.1
бітрейт: 640 кб/с

Джерело озвучення:
&

Субтитри:
мова: англійська
тип: програмні (м'які)
формат: *.srt

Цитата:
Подяка:
Lan за українську доріжку від
wrongfunction за українську доріжку від
log

[info]: frame I:1670 Avg QP:15.43 size:106375
[info]: frame P:37585 Avg QP:17.44 size: 38599
[info]: frame B:121906 Avg QP:19.07 size: 14513
[info]: consecutive B-frames: 2.9% 3.9% 12.8% 17.9% 14.3% 41.2% 6.8%
[info]: mb I I16..4: 9.7% 76.1% 14.2%
[info]: mb P I16..4: 2.6% 17.8% 2.5% P16..4: 35.6% 20.9% 13.2% 0.6% 0.1% skip: 6.7%
[info]: mb B I16..4: 0.2% 1.2% 0.2% B16..8: 41.1% 13.4% 3.4% direct: 6.7% skip:33.8% L0:43.1% L1:45.2% BI:11.7%
[info]: 8x8 transform intra:77.0% inter:62.8%
[info]: coded y,uvDC,uvAC intra: 87.1% 91.8% 81.3% inter: 32.9% 41.6% 24.4%
[info]: i16 v,h,dc,p: 31% 10% 7% 53%
[info]: i8 v,h,dc,ddl,ddr,vr,hd,vl,hu: 10% 8% 6% 10% 14% 14% 13% 12% 13%
[info]: i4 v,h,dc,ddl,ddr,vr,hd,vl,hu: 10% 8% 4% 9% 16% 15% 14% 11% 12%
[info]: i8c dc,h,v,p: 54% 14% 14% 17%
[info]: Weighted P-Frames: Y:10.4% UV:6.3%
[info]: ref P L0: 46.9% 11.0% 20.4% 6.5% 5.7% 3.6% 3.5% 2.0% 0.5% 0.1%
[info]: ref B L0: 73.4% 13.5% 5.9% 3.3% 2.2% 1.3% 0.5%
[info]: ref B L1: 92.4% 7.6%
[info]: kb/s:4043.76
MediaInfo
General
Format : Matroska
Format version : Version 4 / Version 2
File size : 4.37 GiB
Duration : 1h 52mn
Overall bit rate : 5 581 Kbps
Movie name : The Bank Job (2008) 720p by braveboy
Encoded date : UTC 2013-03-29 17:51:28
Writing application : mkvmerge v6.1.0 ('Old Devil') built on Mar 2 2013 14:32:37
Writing library : libebml v1.3.0 + libmatroska v1.4.0

Video
ID : 1
Format : AVC
Format/Info : Advanced Video Codec
Format profile : [email protected]
Format settings, CABAC : Yes
Format settings, ReFrames : 8 frames
Codec ID : V_MPEG4/ISO/AVC
Duration : 1h 52mn
Bit rate : 4 045 Kbps
Width : 1 280 pixels
Height : 544 pixels
Display aspect ratio : 2.35:1
Frame rate mode : Constant
Frame rate : 23.976 fps
Color space : YUV
Chroma subsampling : 4:2:0
Bit depth : 8 bits
Scan type : Progressive
Bits/(Pixel*Frame) : 0.242
Stream size : 3.08 GiB (70%)
Title : The Bank Job (2008) 720p by braveboy
Writing library : core 129 r2245 bc13772
Encoding settings : cabac=1 / ref=8 / deblock=1:-3:-3 / analyse=0x3:0x133 / me=umh / subme=9 / psy=1 / psy_rd=0.85:0.00 / mixed_ref=1 / me_range=24 / chroma_me=1 / trellis=1 / 8x8dct=1 / cqm=0 / deadzone=21,11 / fast_pskip=0 / chroma_qp_offset=-2 / threads=6 / lookahead_threads=1 / sliced_threads=0 / nr=0 / decimate=0 / interlaced=0 / bluray_compat=0 / constrained_intra=0 / bframes=6 / b_pyramid=2 / b_adapt=2 / b_bias=0 / direct=1 / weightb=1 / open_gop=0 / weightp=2 / keyint=240 / keyint_min=23 / scenecut=40 / intra_refresh=0 / rc=2pass / mbtree=0 / bitrate=4045 / ratetol=1.0 / qcomp=0.60 / qpmin=10 / qpmax=51 / qpstep=4 / cplxblur=20.0 / qblur=0.5 / ip_ratio=1.40 / pb_ratio=1.30 / aq=1:1.00
Default : Yes
Forced : No

Audio #1
ID : 2
Format : AC-3
Format/Info : Audio Coding 3
Mode extension : CM (complete main)
Format settings, Endianness : Big
Codec ID : A_AC3
Duration : 1h 52mn
Bit rate mode : Constant
Bit rate : 448 Kbps
Channel(s) : 6 channels
Channel positions : Front: L C R, Side: L R, LFE
Sampling rate : 48.0 KHz
Bit depth : 16 bits
Compression mode : Lossy
Stream size : 359 MiB (8%)
Title : 5.1 @ 448 kbps [1+1]
Language : Ukrainian
Default : Yes
Forced : No

Audio #2
ID : 3
Format : AC-3
Format/Info : Audio Coding 3
Mode extension : CM (complete main)
Format settings, Endianness : Big
Codec ID : A_AC3
Duration : 1h 52mn
Bit rate mode : Constant
Bit rate : 448 Kbps
Channel(s) : 6 channels
Channel positions : Front: L C R, Side: L R, LFE
Sampling rate : 48.0 KHz
Bit depth : 16 bits
Compression mode : Lossy
Stream size : 359 MiB (8%)
Title : 5.1 @ 448 kbps [NTN]
Language : Ukrainian
Default : No
Forced : No

Audio #3
ID : 4
Format : AC-3
Format/Info : Audio Coding 3
Mode extension : CM (complete main)
Format settings, Endianness : Big
Codec ID : A_AC3
Duration : 1h 52mn
Bit rate mode : Constant
Bit rate : 640 Kbps
Channel(s) : 6 channels
Channel positions : Front: L C R, Side: L R, LFE
Sampling rate : 48.0 KHz
Bit depth : 16 bits
Compression mode : Lossy
Stream size : 513 MiB (11%)
Title : 5.1 @ 640 kbps
Language : English
Default : No
Forced : No

Text
ID : 5
Format : UTF-8
Codec ID : S_TEXT/UTF8
Codec ID/Info : UTF-8 Plain Text
Title : Full
Language : English
Default : No
Forced : No

Menu
00:00:00.000 : en:00:00:00.000
00:07:21.524 : en:00:07:21.524
00:13:47.493 : en:00:13:47.493
00:18:59.930 : en:00:18:59.930
00:24:47.277 : en:00:24:47.277
00:36:32.232 : en:00:36:32.232
00:40:28.426 : en:00:40:28.426
00:45:56.754 : en:00:45:56.754
00:54:10.789 : en:00:54:10.789
00:59:52.130 : en:00:59:52.130
01:05:51.030 : en:01:05:51.030
01:15:42.329 : en:01:15:42.329
01:22:39.872 : en:01:22:39.872
01:30:48.401 : en:01:30:48.401
01:38:27.401 : en:01:38:27.401
01:45:52.263 : en:01:45:52.263
Скріншоти





720p by braveboy
Джерело:
Особиста оцінка: 10 - без зайвих вагань рекомендую всім!


 Трекер:    Зареєстрований   

Завантажити / скачати фільм українською



відео для новачків



 Зареєстрований:   2013-03-29 20:13
 Розмір:   4.37 GB 
 Оцінка фільму:   9.7/10 (Голосів: 25)
   
leroykendall 
Модератор HD


З нами з: 03.01.11
Востаннє: 20.11.16
Повідомлень: 749

2012-04-06 06:41  
В імені файлу відкриваючу квадратну дужку пропустив
braveboy 
Відео Гуртом - команда HD
Відео Гуртом - команда HD


З нами з: 15.06.10
Востаннє: 29.10.16
Повідомлень: 958

2012-04-06 07:16  
leroykendall написано:
В імені файлу відкриваючу квадратну дужку пропустив

виправив

Арсенко 
Новенький


З нами з: 28.10.11
Востаннє: 20.11.16
Повідомлень: 12

2012-04-07 17:09  
ей, роздача, ти де? Wink (1)
Bolshoi_Booze 
Новенький


З нами з: 04.01.13
Востаннє: 29.12.15
Повідомлень: 5

2013-12-29 10:44  
Щось не завантажується....
exeeto 
Частий відвідувач


З нами з: 05.08.09
Востаннє: 04.12.16
Повідомлень: 44

2014-05-12 19:43  
Хто знає як можна підлаштувати доріжки звідси під ремукс з 24 fps?
Прокурор 
VIP


З нами з: 24.06.13
Востаннє: 04.12.16
Повідомлень: 343

2014-06-16 22:15  
надзвичайний фільмHappy
цікавий сюжет і гра акторів, тому без жодних вагань рекомендую подивитисяWink (1)

Maters 
VIP


З нами з: 27.03.12
Востаннє: 04.12.16
Повідомлень: 1159

2015-05-23 07:35  
Бля, чуваки влізли в сховище банку і вирішили поспати перед тим, як вигрібати бабло звіти - що це за туфта????????
Віктор 
Відео Гуртом - субтитрування
Відео Гуртом - субтитрування


З нами з: 09.01.10
Востаннє: 04.12.16
Повідомлень: 8663

2015-05-23 07:44  
Maters написано:
вирішили поспати перед тим, як вигрібати бабло звіти - що це за туфта????????

Заморились люди)

Shiver2005 
Свій


З нами з: 01.02.09
Востаннє: 01.12.16
Повідомлень: 108

2015-07-08 20:35  
Хтось роздає?
Ваш часовий пояс: GMT + 2 Години

Нова тема   Відповісти