Завантажити та скачати торренти українською


Те, що її заводить / Turn Me On, Dammit! / Få meg på, for faen (2011) 720p Ukr/Nor | Sub Ukr/Eng/Nor

Нові коментарі

Нова тема   Відповісти
Автор Повідомлення
xfsthe 
Оцифрування книг Гуртом
Оцифрування книг Гуртом


З нами з: 13.02.11
Востаннє: 04.12.16
Повідомлень: 279

2012-04-04 10:51  
Те, що її заводить / Turn Me On, Dammit! / Få meg på, for faen (2011) 720p Ukr/Nor | Sub Ukr/Eng/Nor

Те, що її заводить / Turn Me On, Dammit! / Få meg på, for faen (2011) 720p Ukr/Nor | Sub Ukr/Eng/Nor


Жанр: драма, комедія
Країна: Норвегія



Кіностудія / кінокомпанія: Motlys
Режисер: Янніке Сістад Якобсен
Актори: Хелен Берґшолм, Малін Бйорховде, Генріетта Стінстрап, Джулія Баке-Віг, Джулія Еліз Шахт

Сюжет:
Альмі 15 років, її «найзаводніші» роки проходять в глухому норвезькому містечку. Тут тиша, спокій та вівці на луках - жах для дівчини з надзвичайно розвиненою уявою і безперервним гормональним вибухом! Не дивно, що Альма повністю занурилася в еротичні мрії, що підігріваються телефонною службою «Дикі та гарячі фантазії». І лише мама повертає Альму до реальності, коли бачить рахунки за «секс по телефону».


Тривалість: 01:12:33
Якість: 720p
Відео:
кодек:
розмір кадру: 1280 x 688
бітрейт: 4 958 кб/с

Аудіо #1:
мова: українська
переклад: двоголосий закадровий | усі чоловічі ролі озвучив Юрій Кудрявець
кодек: 5.1
бітрейт: 448 кб/с

Аудіо #2:
мова: норвезька, англійська
переклад: оригінал
кодек: 5.1
бітрейт: 1510 кб/с

Субтитри #1:
мова: українська by xfsthe з російської (завантажити)
тип: програмні (м'які)
формат: *.srt

Субтитри #2:
мова: англійська (завантажити)
тип: програмні (м'які)
формат: *.srt

Субтитри #3:
мова: норвезька (завантажити)
тип: програмні (м'які)
формат: *.srt
MediaInfo

General
Unique ID : 280944828582747104892174695138288640169 (0xD35C017CAFEA1BB1F5B28A8E6A1EA0A9)
Complete name : /media/media/0_my_releases/Fa meg pa, for faen (2011) [ukr,nor] sub[ukr,eng,nor] 720p.mkv
Format : Matroska
Format version : Version 2
File size : 3.50 GiB
Duration : 1h 12mn
Overall bit rate : 6 913 Kbps
Movie name : Те, що її заводить / Få meg på, for faen (2011) 720p
Encoded date : UTC 2012-06-17 23:32:27
Writing application : mkvmerge v5.1.0 ('And so it goes') built on Feb 1 2012 11:31:23
Writing library : libebml v1.2.2 + libmatroska v1.3.0

Video
ID : 1
Format : AVC
Format/Info : Advanced Video Codec
Format profile : [email protected]
Format settings, CABAC : Yes
Format settings, ReFrames : 5 frames
Codec ID : V_MPEG4/ISO/AVC
Duration : 1h 12mn
Bit rate : 4 958 Kbps
Width : 1 280 pixels
Height : 688 pixels
Display aspect ratio : 1.85:1
Frame rate : 25.000 fps
Color space : YUV
Chroma subsampling : 4:2:0
Bit depth : 8 bits
Scan type : Progressive
Bits/(Pixel*Frame) : 0.225
Stream size : 2.44 GiB (70%)
Title : Те, що її заводить / Få meg på, for faen (2011) 720p
Writing library : core 119 r2106 07efeb4
Encoding settings : cabac=1 / ref=5 / deblock=1:0:0 / analyse=0x3:0x133 / me=umh / subme=7 / psy=1 / psy_rd=1.00:0.00 / mixed_ref=1 / me_range=16 / chroma_me=1 / trellis=1 / 8x8dct=1 / cqm=0 / deadzone=21,11 / fast_pskip=0 / chroma_qp_offset=-2 / threads=12 / sliced_threads=0 / nr=0 / decimate=1 / interlaced=0 / bluray_compat=0 / constrained_intra=0 / bframes=3 / b_pyramid=2 / b_adapt=1 / b_bias=0 / direct=1 / weightb=1 / open_gop=0 / weightp=2 / keyint=250 / keyint_min=25 / scenecut=40 / intra_refresh=0 / rc_lookahead=40 / rc=2pass / mbtree=1 / bitrate=4958 / ratetol=1.0 / qcomp=0.60 / qpmin=0 / qpmax=69 / qpstep=4 / cplxblur=20.0 / qblur=0.5 / ip_ratio=1.40 / aq=1:1.00
Language : Norwegian
Default : Yes
Forced : Yes

Audio #1
ID : 2
Format : AC-3
Format/Info : Audio Coding 3
Mode extension : CM (complete main)
Format settings, Endianness : Big
Codec ID : A_AC3
Duration : 1h 12mn
Bit rate mode : Constant
Bit rate : 448 Kbps
Channel(s) : 6 channels
Channel positions : Front: L C R, Side: L R, LFE
Sampling rate : 48.0 KHz
Bit depth : 16 bits
Compression mode : Lossy
Delay relative to video : 1s 200ms
Stream size : 232 MiB (6%)
Title : 5.1 @ 448 kbps
Language : Ukrainian
Default : Yes
Forced : Yes

Audio #2
ID : 3
Format :
Format/Info : Digital Theater Systems
Codec ID : A_DTS
Duration : 1h 12mn
Bit rate mode : Constant
Bit rate : 1 510 Kbps
Channel(s) : 6 channels
Channel positions : Front: L C R, Side: L R, LFE
Sampling rate : 48.0 KHz
Bit depth : 24 bits
Compression mode : Lossy
Delay relative to video : 11ms
Stream size : 783 MiB (22%)
Title : 5.1 @ 1510 kbps
Language : Norwegian
Default : No
Forced : No

Text #1
ID : 4
Format : UTF-8
Codec ID : S_TEXT/UTF8
Codec ID/Info : UTF-8 Plain Text
Title : by xfsthe
Language : Ukrainian
Default : No
Forced : No

Text #2
ID : 5
Format : UTF-8
Codec ID : S_TEXT/UTF8
Codec ID/Info : UTF-8 Plain Text
Language : English
Default : No
Forced : No

Text #3
ID : 6
Format : UTF-8
Codec ID : S_TEXT/UTF8
Codec ID/Info : UTF-8 Plain Text
Language : Norwegian
Default : No
Forced : No
Світлини:






Джерело: файлобмінні ресурси
Особиста оцінка: 10 - цікавий фільм

Українську звукову доріжку взято з релізу пана vamp69, за що йому подяка!


Золотий реліз (завантажене не впливає на рейтинг)
 Трекер:    Зареєстрований   

Завантажити / скачати фільм українською



відео для новачків



 Зареєстрований:   2012-06-18 02:31
 Розмір:   3.5 GB 
 Оцінка фільму:   8.5/10 (Голосів: 6)
   
Інші релізи
Віктор 
Відео Гуртом - субтитрування
Відео Гуртом - субтитрування


З нами з: 09.01.10
Востаннє: 05.12.16
Повідомлень: 8663

2012-04-04 14:24  
На сторінці дистриб'ютора UMS FILM кажуть буде звучок на двд.

http://www.facebook.com/Umsfilm

xfsthe 
Оцифрування книг Гуртом
Оцифрування книг Гуртом


З нами з: 13.02.11
Востаннє: 04.12.16
Повідомлень: 279

2012-04-04 14:50  
w2958l написано:
а сторінці дистриб'ютора UMS FILM кажуть буде звучок на двд.

було б дуже добре! Бо в кінотеатрех показують українською.

Bohdan237 
Відео Гуртом - фільмокрай
Відео Гуртом - фільмокрай


З нами з: 12.02.12
Востаннє: 05.12.16
Повідомлень: 383

2012-05-04 22:54  
Ось український постер !
Укр постер

EvGaS 
Відео Гуртом - підтримка та поширення
Відео Гуртом - підтримка та поширення


З нами з: 27.02.12
Востаннє: 05.12.16
Повідомлень: 2113

2014-07-28 15:54  
Фільм не для всіх (гумор не плаский), але мені сподобався.

Сюжету як такого й немає - просто дурні "життєві ситуації". Але саркастичний гумор - навідмінно.
Стрічка нормально не влазить у вікову систему, тому можна написати "для тих, у кого почали грати гормони".
Отриману нагороду - заслуговує.
Дивитись на позитиві, без сильних очікувань й думок: герої постійно страждають й висловлюються двозначно. ХЗ кому і як, а мені це підняло настрій навідмінно. Хоча якщо подумати про сюжет серйозно - краще не думати, бо все у фільмі зведеться до однієї дії. ))

Ваш часовий пояс: GMT + 2 Години

Нова тема   Відповісти