Завантажити та скачати торренти українською


Серцеїд / Heartbreaker / L'arnacoeur (2010) 720p Ukr/Fra | sub Ukr/Eng

Нові коментарі

Нова тема   Відповісти
Автор Повідомлення
Andick 
Модератор відео та координатор поширення


З нами з: 03.11.09
Востаннє: 06.12.16
Повідомлень: 1499

2012-04-03 20:16  


Серцеїд / Heartbreaker / L'arnacoeur (2010) 720p Ukr/Fra | sub Ukr/Eng



Жанр: комедія, романтичний
Країна: Франція, Монако

Кіностудія / кінокомпанія: Quad Productions, Script Associés, Focus Features
Режисер: Паскаль Шомель / Pascal Chaumeil
Актори: Ромен Дюрі / Romain Duris, Ванесса Параді / Vanessa Paradis, Жюлі Фер'є / Julie Ferrier, Франсуа Дамієнс / François Damiens, Гелена Ногуера / Héléna Noguerra, Ендрю Лінкольн / Andrew Lincoln, Жак Франц / Jacques Frantz, Амандін Девасмес / Amandine Dewasmes, Жан-Ів Лафесс / Jean-Yves Lafesse, Жан-Марі Парі / Jean-Marie Paris, Тарек Будалі / Tarek Boudali, Джефрі Бейтман / Geoffrey Bateman, Філіпп Лашо / Philippe Lachaux, Наташа Кешман / Natasha Cashman, Хіромі Асаі / Hiromi Asai, та інші.
Сюжет:
Професійний ловелас Алекс разом зі своєю сестрою засновують цікавий бізнес: він розлучає небажані для клієнтів романтичні союзи. Бізнес процвітає доти, доки Алексу не доручають справді складне завдання - йому потрібно розлучити дійсно ідеальну пару.

Тривалість: 01:44:50
Якість: 720p
Відео:
кодек:
розмір кадру: 1280 х 540
бітрейт: 5438 кб/с

Аудіо # 1:
мова: українська
переклад: багатоголосий закадровий
кодек: 5.1
бітрейт: 1510 кб/с

Аудіо # 2:
мова: французька
переклад: оригінал
кодек: 5.1
бітрейт: 1510 кб/с

Субтитри:
мова: українська, англійська
тип: програмні (м'які)
формат: *.srt
Над релізом працювали:
Переклад: Євген Айрапетян
Ролі озвучували: Антон Ціватий, Ліра Грім, Соломія Вітвіцька, Олександр Піддубний
Монтаж: Андрій Березін
Координатор проекту: Мирон Товстюк
Цитата:
Додаткова інформація:
Озвучку було зроблено майже рік тому, але при перекладі використувувались "неповні" субтитри. Через що з явились "пропуски" в українській озвучці. Текст доробили, але озвучити "основні голоси" не мали часу. Було вирішено залучити на ті пропуски (кілька речень) інші голоси.
Подяка re:porter (Вадим Пелех), Mister rock (Олексій Петренко) та іншим за допопомогу в доозвучці


MediaInfo
General
Unique ID : 195036392971461983781885477964621427087 (0x92BAA4982B0AF1F89C56329CDB26318F)
Complete name : F:\L'arnacoeur (2010) [ukr,fra] 720p [Hurtom].mkv
Format : Matroska
File size : 6.32 GiB
Duration : 1h 44mn
Overall bit rate : 8 629 Kbps
Movie name : Серцеїд / Heartbreaker / L'arnacoeur (2010)
Encoded date : UTC 2012-04-03 17:52:42
Writing application : mkvmerge v5.2.1 ('A Far Off Place') built on Jan 2 2012 23:21:10
Writing library : libebml v1.2.3 + libmatroska v1.3.0

Video
ID : 1
Format : AVC
Format/Info : Advanced Video Codec
Format profile : [email protected]
Format settings, CABAC : Yes
Format settings, ReFrames : 7 frames
Codec ID : V_MPEG4/ISO/AVC
Duration : 1h 44mn
Bit rate : 5 438 Kbps
Width : 1 280 pixels
Height : 540 pixels
Display aspect ratio : 2.35:1
Frame rate : 23.976 fps
Color space : YUV
Chroma subsampling : 4:2:0
Bit depth : 8 bits
Scan type : Progressive
Bits/(Pixel*Frame) : 0.328
Stream size : 3.98 GiB (63%)
Writing library : core 112 r1834 a51816a
Encoding settings : cabac=1 / ref=7 / deblock=1:-3:-3 / analyse=0x3:0x113 / me=esa / subme=9 / psy=1 / psy_rd=1.07:0.03 / mixed_ref=1 / me_range=32 / chroma_me=1 / trellis=2 / 8x8dct=1 / cqm=0 / deadzone=21,11 / fast_pskip=0 / chroma_qp_offset=-3 / threads=6 / sliced_threads=0 / nr=0 / decimate=1 / interlaced=0 / constrained_intra=0 / bframes=8 / b_pyramid=2 / b_adapt=2 / b_bias=0 / direct=1 / weightb=1 / open_gop=0 / weightp=2 / keyint=250 / keyint_min=23 / scenecut=40 / intra_refresh=0 / rc_lookahead=60 / rc=crf / mbtree=0 / crf=15.6 / qcomp=0.60 / qpmin=10 / qpmax=51 / qpstep=4 / vbv_maxrate=50000 / vbv_bufsize=62500 / crf_max=0.0 / ip_ratio=1.40 / pb_ratio=1.30 / aq=1:0.80 / nal_hrd=none
Language : French

Audio #1
ID : 2
Format :
Format/Info : Digital Theater Systems
Codec ID : A_DTS
Duration : 1h 44mn
Bit rate mode : Constant
Bit rate : 1 510 Kbps
Channel(s) : 6 channels
Channel positions : Front: L C R, Side: L R, LFE
Sampling rate : 48.0 KHz
Bit depth : 24 bits
Compression mode : Lossy
Stream size : 1.11 GiB (17%)
Title : Українська: Багатоголосий (спеціально для Hurtom.com)
Language : Ukrainian

Audio #2
ID : 3
Format :
Format/Info : Digital Theater Systems
Codec ID : A_DTS
Duration : 1h 44mn
Bit rate mode : Constant
Bit rate : 1 510 Kbps
Channel(s) : 6 channels
Channel positions : Front: L C R, Side: L R, LFE
Sampling rate : 48.0 KHz
Bit depth : 16 bits
Compression mode : Lossy
Stream size : 1.11 GiB (17%)
Title : Французька: оригінал
Language : French

Text #1
ID : 4
Format : UTF-8
Codec ID : S_TEXT/UTF8
Codec ID/Info : UTF-8 Plain Text
Language : Ukrainian

Text #2
ID : 5
Format : UTF-8
Codec ID : S_TEXT/UTF8
Codec ID/Info : UTF-8 Plain Text
Language : English

Menu
00:00:00.000 : ru:1.
00:04:00.782 : ru:2.
00:09:23.062 : ru:3.
00:14:49.889 : ru:4.
00:20:16.590 : ru:5.
00:28:00.304 : ru:6.
00:35:21.119 : ru:7.
00:44:17.071 : ru:8.
00:50:56.762 : ru:9.
00:57:53.261 : ru:10.
01:05:58.788 : ru:11.
01:12:39.188 : ru:12.
01:18:07.349 : ru:13.
01:23:53.987 : ru:14.
01:28:59.501 : ru:15.
01:35:45.239 : ru:16.
Скріншоти





Джерело:
Особиста оцінка: 10 - без зайвих вагань рекомендую всім!


Золотий реліз (завантажене не впливає на рейтинг)
 Трекер:    Зареєстрований   

Завантажити / скачати фільм українською



відео для новачків



 Зареєстрований:   2012-04-03 20:16
 Розмір:   6.32 GB 
 Оцінка фільму:   9.2/10 (Голосів: 14)
   
Інші релізи
Gelios 
Відео Гуртом - дизайнер
Відео Гуртом - дизайнер


З нами з: 03.09.11
Востаннє: 07.12.16
Повідомлень: 1882

2012-04-23 17:00  
Альтернативний постер можете поставити Wink (2)
Серцеїд / Heartbreaker / L'arnacoeur (2010)

igor911 
Відео Гуртом
Відео Гуртом


З нами з: 18.01.08
Востаннє: 07.12.16
Повідомлень: 5164

2013-09-20 07:47  
Є дубляж від 1+1, можна оновити реліз.
Ваш часовий пояс: GMT + 2 Години

Нова тема   Відповісти