Завантажити та скачати торренти українською


Люди Iкс: Початок. Росомаха / X-Men Origins: Wolverine (2009) 1080p Ukr/Eng | Sub Ukr/Eng

Нові коментарі

Нова тема   Відповісти
Автор Повідомлення
leroykendall 
Модератор HD


З нами з: 03.01.11
Востаннє: 20.11.16
Повідомлень: 749

2012-04-01 13:22  
Люди Iкс: Початок. Росомаха / X-Men Origins: Wolverine (2009) 1080p Ukr/Eng | Sub Ukr/Eng

Люди Iкс: Початок. Росомаха / X-Men Origins: Wolverine (2009) 1080p Ukr/Eng | Sub Ukr/Eng

«Every Hero Has an Origin.»


Жанр: бойовик, пригоди, фентезі
Країна: США





Кіностудія / кінокомпанія: Twentieth Century Fox
Режисер: Гевін Худ (Gavin Hood)
Актори: Г'ю Джекман (Hugh Jackman), Лів Шрайбер (Liev Schreiber), Денні Х'юстон (Danny Huston), Уіл Ай Ем (Will i Am), Лінн Коллінз (Lynn Collins), Кевін Дюран (Kevin Durand), Домінік Монахен (Dominic Monaghan), Тейлор Кітч (Taylor Kitsch), Даніель Хенні (Daniel Henney), Раян Рейнольдс (Ryan Reynolds), Тім Пакок (Tim Pocock), Джулія Блейк (Julia Blake), Макс Каллен (Max Cullen), Трой Сайван (Troye Sivan), Майкл - Джеймс Олсен (Michael-James Olsen)

Сюжет:
Екранізація відомого американсьького коміксу, передісторія «Людей Ікс», що розповідає про військове минуле Логана і обставини, при яких він став володарем адамантового скелета.


Тривалість: 01:47:24
Якість: 1080p (ріп від DON)
Відео:
кодек:
розмір кадру: 1920 x 818
бітрейт: 17400 кб/с

Аудіо # 1:
мова: українська
переклад: професійний дубльований
кодек: 5.1
бітрейт: 448 кб/с

Аудіо # 2:
мова: англійська
переклад: оригінал
кодек: 5.1
бітрейт: 768 кб/с

Джерело озвучення:


Субтитри:
мова: українська
тип: програмні (м'які)
формат: *.srt

Субтитри:
мова: англійська
тип: програмні (м'які)
формат: *.srt

Збережені оригінальні чаптери як на Blu-ray.


MediaInfo
Код:
General
Complete name                    : V:\X-Men Origins. Wolverine (2009) [Ukr, Eng] 1080p [Hurtom] by leroykendall.mkv
Format                           : Matroska
File size                        : 14.3 GiB
Duration                         : 1h 47mn
Overall bit rate                 : 19.0 Mbps
Movie name                       : X-Men Origins. Wolverine (2009) [Ukr, Eng] 1080p [Hurtom] by leroykendall
Encoded date                     : UTC 2012-03-26 15:54:23
Writing application              : mkvmerge v4.9.1 ('Ich will') зібрано Jul 11 2011 23:53:15
Writing library                  : libebml v1.2.1 + libmatroska v1.1.1

Video
ID                               : 1
Format                           : AVC
Format/Info                      : Advanced Video Codec
Format profile                   : [email protected]
Format settings, CABAC           : Yes
Format settings, ReFrames        : 4 frames
Muxing mode                      : Container [email protected]
Codec ID                         : V_MPEG4/ISO/AVC
Duration                         : 1h 47mn
Bit rate                         : 17.4 Mbps
Nominal bit rate                 : 17.8 Mbps
Width                            : 1 920 pixels
Height                           : 818 pixels
Display aspect ratio             : 2.35:1
Frame rate                       : 23.976 fps
Resolution                       : 24 bits
Colorimetry                      : 4:2:0
Scan type                        : Progressive
Bits/(Pixel*Frame)               : 0.463
Stream size                      : 13.1 GiB (92%)
Title                            : ріп від DON
Writing library                  : core 72 r1232M c8edc12
Encoding settings                : cabac=1 / ref=4 / deblock=1:-3:-3 / analyse=0x3:0x133 / me=umh / subme=10 / psy=1 / psy_rd=1.9:0.1 / mixed_ref=1 / me_range=64 / chroma_me=1 / trellis=2 / 8x8dct=1 / cqm=2 / deadzone=21,11 / chroma_qp_offset=-3 / threads=12 / nr=0 / decimate=0 / mbaff=0 / bframes=9 / b_pyramid=1 / b_adapt=2 / b_bias=0 / direct=3 / wpredb=1 / keyint=250 / keyint_min=25 / scenecut=40 / rc=2pass / mbtree=0 / bitrate=17787 / ratetol=1.0 / qcomp=0.60 / qpmin=10 / qpmax=51 / qpstep=4 / cplxblur=20.0 / qblur=0.5 / ip_ratio=1.40 / pb_ratio=1.30 / aq=1:1.20

Audio #1
ID                               : 2
Format                           : AC-3
Format/Info                      : Audio Coding 3
Codec ID                         : A_AC3
Duration                         : 1h 47mn
Bit rate mode                    : Constant
Bit rate                         : 448 Kbps
Channel(s)                       : 6 channels
Channel positions                : Front: L C R, Surround: L R, LFE
Sampling rate                    : 48.0 KHz
Stream size                      : 344 MiB (2%)
Title                            : @ 448 кб/с
Language                         : Ukrainian

Audio #2
ID                               : 3
Format                           :
Format/Info                      : Digital Theater Systems
Codec ID                         : A_DTS
Duration                         : 1h 47mn
Bit rate mode                    : Constant
Bit rate                         : 755 Kbps
Channel(s)                       : 6 channels
Channel positions                : Front: L C R, Surround: L R, LFE
Sampling rate                    : 48.0 KHz
Resolution                       : 24 bits
Stream size                      : 580 MiB (4%)
Title                            : @ 768 Kbps

Text #1
ID                               : 4
Format                           : UTF-8
Codec ID                         : S_TEXT/UTF8
Codec ID/Info                    : UTF-8 Plain Text
Language                         : Ukrainian

Text #2
ID                               : 5
Format                           : UTF-8
Codec ID                         : S_TEXT/UTF8
Codec ID/Info                    : UTF-8 Plain Text

Menu
00:00:00.000                     : en:00:00:00.000
00:03:21.201                     : en:00:03:21.201
00:07:49.010                     : en:00:07:49.010
00:10:28.419                     : en:00:10:28.419
00:14:09.807                     : en:00:14:09.807
00:17:50.111                     : en:00:17:50.111
00:19:31.504                     : en:00:19:31.504
00:25:55.137                     : en:00:25:55.137
00:28:17.988                     : en:00:28:17.988
00:32:28.572                     : en:00:32:28.572
00:37:51.311                     : en:00:37:51.311
00:45:03.367                     : en:00:45:03.367
00:49:43.647                     : en:00:49:43.647
00:56:28.468                     : en:00:56:28.468
00:59:41.828                     : en:00:59:41.828
01:02:17.651                     : en:01:02:17.651
01:06:12.177                     : en:01:06:12.177
01:09:54.524                     : en:01:09:54.524
01:12:54.704                     : en:01:12:54.704
01:16:19.742                     : en:01:16:19.742
01:21:29.468                     : en:01:21:29.468
01:25:57.778                     : en:01:25:57.778
01:28:55.121                     : en:01:28:55.121
01:32:06.813                     : en:01:32:06.813
01:33:37.070                     : en:01:33:37.070
01:37:15.538                     : en:01:37:15.538
01:40:22.141                     : en:01:40:22.141
01:41:26.122                     : en:01:41:26.122
Скріншоти:





Джерело:
Особиста оцінка: 7 - не так потужно як X-Men або X2, але є декілька класних моментів


 Трекер:    Зареєстрований   

Завантажити / скачати фільм українською



відео для новачків



 Зареєстрований:   2012-04-01 13:22
 Розмір:   14.26 GB 
 Оцінка фільму:   9.2/10 (Голосів: 13)
   
Віктор 
Відео Гуртом - субтитрування
Відео Гуртом - субтитрування


З нами з: 09.01.10
Востаннє: 11.12.16
Повідомлень: 8664

2012-04-01 17:12  
leroykendall написано:
Раян Рейнольдс (Ryan Reynolds)

Теж є фільмограшка.) - http://toloka.to/t17841

leroykendall 
Модератор HD


З нами з: 03.01.11
Востаннє: 20.11.16
Повідомлень: 749

2012-04-01 17:57  
w2958l
Дякую. Додав :-)

Shukh 
Свій


З нами з: 20.08.11
Востаннє: 07.12.16
Повідомлень: 148

2013-07-17 12:15  
станьте на роздачу, будь ласка!!
Skywalker 
Свій


З нами з: 19.02.09
Востаннє: 11.07.16
Повідомлень: 71

2013-09-10 21:14  
МЕні правду кажучи сподобалось більше ніж оригінальна іксова трилогія
dima77777 
Поважний учасник


З нами з: 28.11.12
Востаннє: 11.12.16
Повідомлень: 198

2013-12-01 22:03  
Классний фільм,дякую!!!
Ghetto Blaster 
Новенький


З нами з: 29.06.12
Востаннє: 10.12.16
Повідомлень: 2

2015-06-30 19:22  
станьте будь ласка на роздачу
Ваш часовий пояс: GMT + 2 Години

Нова тема   Відповісти