Завантажити та скачати торренти українською


Гаррі Поттер: Антологія / Harry Potter: Anthology (2001-2011) 720p Ukr/Eng

Нові коментарі

Нова тема   Відповісти
Сторінка:  1, 2  наступна
Автор Повідомлення
Zeus62 
Відео Гуртом - команда HD
Відео Гуртом - команда HD


З нами з: 29.12.08
Востаннє: 16.11.16
Повідомлень: 330

2012-03-29 15:11  
Гаррі Поттер: Антологія / Harry Potter: Anthology (2001-2011) 720p Ukr/Eng

Гаррі Поттер: Антологія / Harry Potter: Anthology (2001-2011) 720p Ukr/Eng
Гаррі Поттер і філософський камінь / Harry Potter and the Sorcerer's Stone (2001) 720p Ukr/Eng
Гаррі Поттер і філософський камінь / Harry Potter and the Sorcerer's Stone (2001) 720p Ukr/Eng

Гаррі Поттер: Антологія / Harry Potter: Anthology (2001-2011) 720p Ukr/Eng


Жанр: пригодницький, сімейний, фентезі
Країна: США, Великобританія



Кіностудія / кінокомпанія: Warner Bros. Pictures, Heyday Films, 1492 Pictures
Режисер: Кріс Коламбус
Актори: Деніел Редкліфф, Руперт Грінт, Емма Вотсон, Том Фелтон, Річард Харріс, Меггі Сміт, Роббі Колтрейн, Алан Рікман та інші.

Сюжет:
Одинадцятирічний Гаррі Поттер, що втратив своїх батьків у ранньому дитинстві, живе з дядьком і тіткою. Він змушений терпіти їхнє погане ставлення до себе й жити під сходами. Але одного разу, хлопчик одержує запрошення вчитися в Хогвартсі - школі для юних чарівників, де вчать чаклунству й магії. Виявляється, батьки Гарі були чарівниками, але їх убив злий чаклун, що тепер намагається проникнути в Хогвартс, щоб украсти захований там філософський камінь. Незважаючи на протести свого злого сімейства, Гаррі відправляється в школу, де буде вчитися чарівництву. Там він знайде нових цікавих друзів, які допоможуть йому довідатися правду про батьків. Гаррі також чекає багато чарівних і дивних пригод, а все його життя перетворитися на казку.


Тривалість: 02:32:21
Якість:
Відео:
кодек:
розмір кадру: 1280 х 528
бітрейт: 3217 кб/с

Аудіо # 1:
мова: українська
переклад: багатоголосий закадровий
кодек: 5.1
бітрейт: 448 кб/с

Аудіо # 2:
мова: англійська
переклад: оригінал
кодек: 5.1
бітрейт: 448 кб/с
MediaInfo:
File size : 4.38 GiB
Duration : 2h 32mn
Overall bit rate : 4 115 Kbps
Encoded date : UTC 2012-03-20 22:54:13
Writing application : mkvmerge v5.4.0 ('Piper') built on Mar 10 2012 19:51:58
Writing library : libebml v1.2.2 + libmatroska v1.3.0

Video
ID : 1
Format : AVC
Format/Info : Advanced Video Codec
Format profile : [email protected]
Format settings, CABAC : Yes
Format settings, ReFrames : 16 frames
Codec ID : V_MPEG4/ISO/AVC
Duration : 2h 32mn
Bit rate : 3 217 Kbps
Width : 1 280 pixels
Height : 528 pixels
Display aspect ratio : 2.40:1
Frame rate mode : Variable
Frame rate : 23.976 fps
Color space : YUV
Chroma subsampling : 4:2:0
Bit depth : 8 bits
Scan type : Progressive
Bits/(Pixel*Frame) : 0.199
Stream size : 3.34 GiB (76%)
Title : For Hurtom by Zeus62
Writing library : core 112
Encoding settings : cabac=1 / ref=16 / deblock=1:-3:-3 / analyse=0x3:0x113 / me=umh / subme=10 / psy=1 / psy_rd=1,00:0,00 / mixed_ref=1 / me_range=64 / chroma_me=1 / trellis=2 / 8x8dct=1 / cqm=0 / deadzone=21,11 / fast_pskip=1 / chroma_qp_offset=-2 / threads=9 / sliced_threads=0 / nr=0 / decimate=1 / interlaced=0 / constrained_intra=0 / bframes=16 / b_pyramid=2 / b_adapt=2 / b_bias=0 / direct=1 / weightb=1 / open_gop=0 / weightp=2 / keyint=240 / keyint_min=23 / scenecut=40 / intra_refresh=0 / rc_lookahead=50 / rc=2pass / mbtree=1 / bitrate=3217 / ratetol=1,0 / qcomp=0,60 / qpmin=3 / qpmax=51 / qpstep=4 / cplxblur=20,0 / qblur=0,5 / ip_ratio=1,40 / aq=1:1,00
Language : Ukrainian
Default : Yes
Forced : No
Color primaries : BT.709-5, BT.1361, IEC 61966-2-4, SMPTE RP177
Transfer characteristics : BT.709-5, BT.1361
Matrix coefficients : BT.709-5, BT.1361, IEC 61966-2-4 709, SMPTE RP177

Audio #1
ID : 2
Format : AC-3
Format/Info : Audio Coding 3
Mode extension : CM (complete main)
Codec ID : A_AC3
Duration : 2h 32mn
Bit rate mode : Constant
Bit rate : 448 Kbps
Channel(s) : 6 channels
Channel positions : Front: L C R, Side: L R, LFE
Sampling rate : 48.0 KHz
Bit depth : 16 bits
Compression mode : Lossy
Delay relative to video : 100ms
Stream size : 488 MiB (11%)
Title : 5.1 448 kb/s by Zeus62
Language : Ukrainian
Default : Yes
Forced : No

Audio #2
ID : 3
Format : AC-3
Format/Info : Audio Coding 3
Mode extension : CM (complete main)
Codec ID : A_AC3
Duration : 2h 32mn
Bit rate mode : Constant
Bit rate : 448 Kbps
Channel(s) : 6 channels
Channel positions : Front: L C R, Side: L R, LFE
Sampling rate : 48.0 KHz
Bit depth : 16 bits
Compression mode : Lossy
Stream size : 488 MiB (11%)
Language : English
Default : No
Forced : No
Log :
[info]: frame I:1650 Avg QP:16,04 size:100962 PSNR Mean Y:47,44 U:51,27 V:52,92 Avg:48,29 Global:47,93
[info]: frame P:44953 Avg QP:19,20 size: 33644 PSNR Mean Y:45,09 U:51,34 V:52,87 Avg:46,08 Global:45,46
[info]: frame B:172572 Avg QP:21,74 size: 11570 PSNR Mean Y:43,61 U:50,15 V:52,03 Avg:44,73 Global:44,22
[info]: consecutive B-frames: 1,3% 2,4% 6,1% 18,3% 16,9% 32,0% 8,6% 7,1% 2,0% 1,7% 0,8% 1,4% 0,5% 0,5% 0,1% 0,3% 0,1%
[info]: mb I I16..4: 3,0% 85,9% 11,0%
[info]: mb P I16..4: 1,0% 10,1% 1,0% P16..4: 42,1% 26,5% 15,5% 0,0% 0,0% skip: 3,9%
[info]: mb B I16..4: 0,0% 0,8% 0,1% B16..8: 44,6% 11,9% 2,9% direct: 6,5% skip:33,2% L0:45,4% L1:45,1% BI: 9,5%
[info]: 8x8 transform intra:85,0% inter:68,0%
[info]: coded y,uvDC,uvAC intra: 90,6% 79,7% 48,8% inter: 30,5% 20,1% 2,2%
[info]: i16 v,h,dc,p: 34% 13% 11% 43%
[info]: i8 v,h,dc,ddl,ddr,vr,hd,vl,hu: 8% 7% 5% 11% 16% 14% 14% 12% 13%
[info]: i4 v,h,dc,ddl,ddr,vr,hd,vl,hu: 9% 6% 3% 10% 17% 15% 15% 12% 13%
[info]: i8c dc,h,v,p: 41% 23% 19% 18%
[info]: Weighted P-Frames: Y:9,8% UV:6,0%
[info]: ref P L0: 40,3% 10,2% 17,7% 6,8% 5,8% 4,0% 3,7% 1,9% 1,9% 1,5% 1,4% 1,1% 1,1% 0,9% 0,9% 0,6%
[info]: ref B L0: 66,7% 13,2% 6,4% 3,4% 2,4% 2,0% 1,5% 0,9% 0,8% 0,7% 0,6% 0,5% 0,4% 0,3% 0,1%
[info]: ref B L1: 90,8% 9,2%
[info]: SSIM Mean Y:0,9736310 (15,789db)
[info]: PSNR Mean Y:43,938 U:50,404 V:52,213 Avg:45,035 Global:44,465 kb/s:3216,69
Скріншоти:
Original vs Encode




Гаррі Поттер і таємна кімната / Harry Potter and the Chamber of Secrets (2002) 720p Ukr/Eng
Гаррі Поттер і таємна кімната / Harry Potter and the Chamber of Secrets (2002) 720p Ukr/Eng

Гаррі Поттер: Антологія / Harry Potter: Anthology (2001-2011) 720p Ukr/Eng


Жанр: детектив, фентезі, пригодницький, сімейний
Країна: Великобританія, США, Німеччина



Кіностудія / кінокомпанія: 1492 Pictures, Heyday Films, MIRACLE Productions GmbH & Co. KG, Warner Bros. Pictures
Режисер: Кріс Коламбус
Актори: Деніел Редкліфф, Руперт Грінт, Емма Вотсон, Річард Гріффітс, Фіона Шоу, Том Фелтон, Річард Харріс, Роббі Колтрейн, Алан Рікман, Меггі Сміт та інші.

Сюжет:
Гаррі Поттер переходить на другий курс Школи Магії і Чарів Хогвартс. Ельф Доббі попереджає Гаррі про небезпеку, яка чекає його там, і просить більше не повертатися в Хогвартс. Гаррі не слідує пораді ельфа і стає свідком страшних подій, що розгортаються в школі. Один за іншим її мешканці виявляються під впливом злих чарів, що перетворюють їх у закляклі статуї. А Гаррі весь цей час чує зловісний голос, який, здавалося б, йде з нізвідки. Незабаром учні довідаються про існування страшної Таємної кімнати, відкрити яку в змозі тільки єдиний спадкоємець Салазара Слизерина. Усі думають, що Таємну кімнату відкрив саме Гаррі і звільнив ув’язнений у ній Жах, адже справа в тому, що Поттер розуміє змій і вміє говорити на їхній мові. Гаррі Поттер – парселмовець! А саме таким і був знаменитий Слизерин.


Тривалість: 02:40:56
Якість:
Відео:
кодек:
розмір кадру: 1280 х 536
бітрейт: 2819 кб/с

Аудіо # 1:
мова: українська
переклад: багатоголосий закадровий
кодек: 5.1
бітрейт: 640 кб/с

Аудіо # 2:
мова: англійська
переклад: оригінал
кодек: 5.1
бітрейт: 384 кб/с
MediaInfo:
File size : 4.31 GiB
Duration : 2h 40mn
Overall bit rate : 3 830 Kbps
Encoded date : UTC 2012-03-20 12:25:21
Writing application : mkvmerge v5.4.0 ('Piper') built on Mar 10 2012 19:51:58
Writing library : libebml v1.2.2 + libmatroska v1.3.0

Video
ID : 1
Format : AVC
Format/Info : Advanced Video Codec
Format profile : [email protected]
Format settings, CABAC : Yes
Format settings, ReFrames : 16 frames
Codec ID : V_MPEG4/ISO/AVC
Duration : 2h 40mn
Bit rate : 2 819 Kbps
Width : 1 280 pixels
Height : 536 pixels
Display aspect ratio : 2.40:1
Frame rate mode : Variable
Frame rate : 23.976 fps
Color space : YUV
Chroma subsampling : 4:2:0
Bit depth : 8 bits
Scan type : Progressive
Bits/(Pixel*Frame) : 0.171
Stream size : 3.07 GiB (71%)
Title : For Hurtom by Zeus62
Writing library : core 112
Encoding settings : cabac=1 / ref=16 / deblock=1:-3:-3 / analyse=0x3:0x113 / me=umh / subme=10 / psy=1 / psy_rd=1,00:0,00 / mixed_ref=1 / me_range=64 / chroma_me=1 / trellis=2 / 8x8dct=1 / cqm=0 / deadzone=21,11 / fast_pskip=1 / chroma_qp_offset=-2 / threads=9 / sliced_threads=0 / nr=0 / decimate=1 / interlaced=0 / constrained_intra=0 / bframes=16 / b_pyramid=2 / b_adapt=2 / b_bias=0 / direct=1 / weightb=1 / open_gop=0 / weightp=2 / keyint=240 / keyint_min=23 / scenecut=40 / intra_refresh=0 / rc_lookahead=50 / rc=2pass / mbtree=1 / bitrate=2819 / ratetol=1,0 / qcomp=0,60 / qpmin=3 / qpmax=51 / qpstep=4 / cplxblur=20,0 / qblur=0,5 / ip_ratio=1,40 / aq=1:1,00
Language : Ukrainian
Default : Yes
Forced : No
Color primaries : BT.709-5, BT.1361, IEC 61966-2-4, SMPTE RP177
Transfer characteristics : BT.709-5, BT.1361
Matrix coefficients : BT.709-5, BT.1361, IEC 61966-2-4 709, SMPTE RP177

Audio #1
ID : 2
Format : AC-3
Format/Info : Audio Coding 3
Mode extension : CM (complete main)
Codec ID : A_AC3
Duration : 2h 40mn
Bit rate mode : Constant
Bit rate : 640 Kbps
Channel(s) : 6 channels
Channel positions : Front: L C R, Side: L R, LFE
Sampling rate : 48.0 KHz
Bit depth : 16 bits
Compression mode : Lossy
Stream size : 737 MiB (17%)
Title : 5.1 640 kb/s by Zeus62
Language : Ukrainian
Default : Yes
Forced : No

Audio #2
ID : 3
Format : AC-3
Format/Info : Audio Coding 3
Mode extension : CM (complete main)
Codec ID : A_AC3
Duration : 2h 40mn
Bit rate mode : Constant
Bit rate : 384 Kbps
Channel(s) : 6 channels
Channel positions : Front: L C R, Side: L R, LFE
Sampling rate : 48.0 KHz
Bit depth : 16 bits
Compression mode : Lossy
Stream size : 442 MiB (10%)
Language : English
Default : No
Forced : No
Log :
[info]: frame I:1886 Avg QP:14,36 size: 94195 PSNR Mean Y:49,15 U:52,68 V:53,60 Avg:49,89 Global:49,57
[info]: frame P:50338 Avg QP:17,53 size: 29820 PSNR Mean Y:47,07 U:52,78 V:53,75 Avg:47,88 Global:47,30
[info]: frame B:179289 Avg QP:20,92 size: 9614 PSNR Mean Y:45,35 U:51,35 V:52,61 Avg:46,36 Global:45,95
[info]: consecutive B-frames: 1,2% 2,8% 5,5% 31,1% 10,6% 36,2% 2,6% 8,9% 0,4% 0,3% 0,1% 0,3% 0,0% 0,0% 0,0% 0,0% 0,0%
[info]: mb I I16..4: 3,4% 83,6% 13,0%
[info]: mb P I16..4: 1,8% 10,8% 1,1% P16..4: 41,1% 26,9% 13,5% 0,0% 0,0% skip: 4,9%
[info]: mb B I16..4: 0,1% 0,9% 0,1% B16..8: 42,7% 11,1% 2,5% direct: 5,4% skip:37,2% L0:45,4% L1:44,4% BI:10,2%
[info]: 8x8 transform intra:80,8% inter:67,8%
[info]: coded y,uvDC,uvAC intra: 81,9% 74,7% 44,7% inter: 24,2% 17,0% 2,2%
[info]: i16 v,h,dc,p: 46% 11% 9% 34%
[info]: i8 v,h,dc,ddl,ddr,vr,hd,vl,hu: 13% 8% 7% 9% 14% 13% 12% 12% 12%
[info]: i4 v,h,dc,ddl,ddr,vr,hd,vl,hu: 14% 6% 4% 9% 16% 15% 13% 11% 12%
[info]: i8c dc,h,v,p: 42% 23% 19% 15%
[info]: Weighted P-Frames: Y:6,4% UV:3,6%
[info]: ref P L0: 43,5% 9,1% 16,9% 6,9% 5,5% 4,0% 3,4% 1,9% 1,7% 1,4% 1,3% 1,1% 1,0% 0,9% 0,8% 0,6%
[info]: ref B L0: 72,6% 10,9% 5,3% 2,7% 2,0% 1,6% 1,3% 0,8% 0,7% 0,6% 0,5% 0,4% 0,4% 0,3% 0,1%
[info]: ref B L1: 93,0% 7,0%
[info]: SSIM Mean Y:0,9831364 (17,731db)
[info]: PSNR Mean Y:45,755 U:51,675 V:52,864 Avg:46,716 Global:46,230 kb/s:2818,86
Скріншоти:
Original vs Encode




Гаррі Поттер і в'язень Азкабану / Harry Potter and the Prisoner of Azkaban (2004) 720p Ukr/Eng
Гаррі Поттер і в'язень Азкабану / Harry Potter and the Prisoner of Azkaban (2004) 720p Ukr/Eng

Гаррі Поттер: Антологія / Harry Potter: Anthology (2001-2011) 720p Ukr/Eng


Жанр: детектив, фентезі, пригодницький, сімейний
Країна: Великобританія, США



Кіностудія / кінокомпанія: Warner Bros. Pictures, 1492 Pictures, Heyday Films, P of A Productions Limited
Режисер: Альфонсо Куарон
Актори: Деніел Редкліфф, Руперт Грінт, Емма Вотсон, Том Фелтон, Гарі Олдман, Девід Т'юліс, Майкл Гембон, Алан Рікман, Роббі Колтрейн, Меггі Сміт та інші.

Сюжет:
Гаррі Поттер, Рон і Герміона продовжують своє навчання в Школі Магії і Чарів Хогвартс. Новий семестр у Хогвартсі обіцяє багато пригод і задоволень! Ви дізнаєтеся, як Гаррі освоює нові премудрості чарівництва, приручає гіпогріфа Бакбика, б’ється з богартом, а також потайки проникаючи в село Хогсмід. Але новий навчальний рік, на жаль, обіцяє безліч небезпек. У Хогвартс пробрався вбивця, на рахунку якого безліч життів і людей, і чарівників. Для охорони школи запрошені лиховісні вартові в’язниці Азкабан – дементори. Гаррі та його друзі дуже скоро з’ясовують, чому всі чарівники бояться дементорів. Поттер вирішує знайти вбивцю. З Гаррі висмоктують душу дементори, а маг Сіріус Блек, втікши з Азкабану, відкриє сезон полювання на нашого юного героя! Тепер Гаррі в небезпеці навіть за стінами своєї чарівної школи, навіть в оточенні друзів! Гаррі, Рон і Герміона пускаються в нові авантюри: друзям доведеться подолати часові межі, відкрити таємницю минулого Гаррі і викрити зрадника.


Тривалість: 02:21:42
Якість:
Відео:
кодек:
розмір кадру: 1280 х 528
бітрейт: 2995 кб/с

Аудіо # 1:
мова: українська
переклад: багатоголосий закадровий
кодек: 5.1
бітрейт: 640 кб/с

Аудіо # 2:
мова: англійська
переклад: оригінал
кодек: 5.1
бітрейт: 640 кб/с
MediaInfo:
File size : 4.23 GiB
Duration : 2h 21mn
Overall bit rate : 4 277 Kbps
Encoded date : UTC 2012-03-21 01:01:07
Writing application : mkvmerge v5.4.0 ('Piper') built on Mar 10 2012 19:51:58
Writing library : libebml v1.2.2 + libmatroska v1.3.0

Video
ID : 1
Format : AVC
Format/Info : Advanced Video Codec
Format profile : [email protected]
Format settings, CABAC : Yes
Format settings, ReFrames : 16 frames
Codec ID : V_MPEG4/ISO/AVC
Duration : 2h 21mn
Bit rate : 2 995 Kbps
Width : 1 280 pixels
Height : 528 pixels
Display aspect ratio : 2.40:1
Frame rate mode : Variable
Frame rate : 23.976 fps
Color space : YUV
Chroma subsampling : 4:2:0
Bit depth : 8 bits
Scan type : Progressive
Bits/(Pixel*Frame) : 0.185
Stream size : 2.88 GiB (68%)
Title : For Hurtom by Zeus62
Writing library : core 112
Encoding settings : cabac=1 / ref=16 / deblock=1:-3:-3 / analyse=0x3:0x113 / me=umh / subme=10 / psy=1 / psy_rd=1,00:0,00 / mixed_ref=1 / me_range=64 / chroma_me=1 / trellis=2 / 8x8dct=1 / cqm=0 / deadzone=21,11 / fast_pskip=1 / chroma_qp_offset=-2 / threads=9 / sliced_threads=0 / nr=0 / decimate=1 / interlaced=0 / constrained_intra=0 / bframes=16 / b_pyramid=2 / b_adapt=2 / b_bias=0 / direct=1 / weightb=1 / open_gop=0 / weightp=2 / keyint=240 / keyint_min=23 / scenecut=40 / intra_refresh=0 / rc_lookahead=50 / rc=2pass / mbtree=1 / bitrate=2995 / ratetol=1,0 / qcomp=0,60 / qpmin=3 / qpmax=51 / qpstep=4 / cplxblur=20,0 / qblur=0,5 / ip_ratio=1,40 / aq=1:1,00
Language : Ukrainian
Default : Yes
Forced : No
Color primaries : BT.709-5, BT.1361, IEC 61966-2-4, SMPTE RP177
Transfer characteristics : BT.709-5, BT.1361
Matrix coefficients : BT.709-5, BT.1361, IEC 61966-2-4 709, SMPTE RP177

Audio #1
ID : 2
Format : AC-3
Format/Info : Audio Coding 3
Mode extension : CM (complete main)
Codec ID : A_AC3
Duration : 2h 21mn
Bit rate mode : Constant
Bit rate : 640 Kbps
Channel(s) : 6 channels
Channel positions : Front: L C R, Side: L R, LFE
Sampling rate : 48.0 KHz
Bit depth : 16 bits
Compression mode : Lossy
Stream size : 649 MiB (15%)
Title : 5.1 640 kb/s by Zeus62
Language : Ukrainian
Default : Yes
Forced : No

Audio #2
ID : 3
Format : AC-3
Format/Info : Audio Coding 3
Mode extension : CM (complete main)
Codec ID : A_AC3
Duration : 2h 21mn
Bit rate mode : Constant
Bit rate : 640 Kbps
Channel(s) : 6 channels
Channel positions : Front: L C R, Side: L R, LFE
Sampling rate : 48.0 KHz
Bit depth : 16 bits
Compression mode : Lossy
Stream size : 649 MiB (15%)
Language : English
Default : No
Forced : No
Log :
[info]: frame I:1442 Avg QP:15,10 size:129344 PSNR Mean Y:48,11 U:50,70 V:50,88 Avg:48,80 Global:48,24
[info]: frame P:48262 Avg QP:18,69 size: 35924 PSNR Mean Y:46,44 U:49,53 V:49,52 Avg:47,12 Global:45,70
[info]: frame B:154137 Avg QP:22,80 size: 8190 PSNR Mean Y:43,84 U:47,82 V:48,13 Avg:44,79 Global:44,24
[info]: consecutive B-frames: 2,1% 4,2% 7,0% 31,8% 13,2% 35,9% 1,9% 2,8% 0,3% 0,4% 0,0% 0,1% 0,0% 0,0% 0,0% 0,0% 0,0%
[info]: mb I I16..4: 9,1% 68,6% 22,3%
[info]: mb P I16..4: 2,0% 7,6% 1,0% P16..4: 37,4% 25,1% 15,5% 0,0% 0,0% skip:11,3%
[info]: mb B I16..4: 0,1% 0,6% 0,1% B16..8: 38,7% 9,4% 2,4% direct: 4,6% skip:44,1% L0:42,5% L1:44,0% BI:13,5%
[info]: 8x8 transform intra:71,1% inter:61,9%
[info]: coded y,uvDC,uvAC intra: 75,6% 67,0% 42,2% inter: 24,9% 14,9% 3,8%
[info]: i16 v,h,dc,p: 67% 10% 7% 16%
[info]: i8 v,h,dc,ddl,ddr,vr,hd,vl,hu: 10% 8% 8% 9% 14% 13% 14% 11% 13%
[info]: i4 v,h,dc,ddl,ddr,vr,hd,vl,hu: 11% 8% 7% 9% 14% 13% 13% 11% 14%
[info]: i8c dc,h,v,p: 50% 20% 16% 14%
[info]: Weighted P-Frames: Y:3,4% UV:2,0%
[info]: ref P L0: 47,2% 15,9% 14,6% 5,0% 4,1% 2,8% 2,5% 1,4% 1,3% 1,0% 1,0% 0,8% 0,8% 0,6% 0,7% 0,5%
[info]: ref B L0: 79,1% 9,4% 4,0% 1,9% 1,3% 1,1% 0,8% 0,5% 0,4% 0,4% 0,3% 0,3% 0,2% 0,2% 0,1%
[info]: ref B L1: 94,3% 5,7%
[info]: SSIM Mean Y:0,9805064 (17,101db)
[info]: PSNR Mean Y:44,483 U:48,245 V:48,479 Avg:45,371 Global:44,564 kb/s:2994,77
Скріншоти:
Original vs Encode




Гаррі Поттер і келих вогню / Harry Potter and the Goblet of Fire (2005) 720p Ukr/Eng
Гаррі Поттер і келих вогню / Harry Potter and the Goblet of Fire (2005) 720p Ukr/Eng

Гаррі Поттер: Антологія / Harry Potter: Anthology (2001-2011) 720p Ukr/Eng


Жанр: детектив, фентезі, пригодницький, сімейний
Країна: Великобританія, США



Кіностудія / кінокомпанія: Warner Bros. Pictures, Heyday Films, Patalex IV Productions Limited
Режисер: Майк Ньюелл
Актори: Деніел Редкліфф, Руперт Грінт, Емма Вотсон, Том Фелтон, Роберт Паттінсон, Ральф Файнс, Алан Рікман, Майкл Гембон, Меггі Сміт та інші.

Сюжет:
Гаррі Поттер, Рон и Герміона повертаються на четвертий курс до Школи Магії і Чарів Хогвартс. При таємничих обставинах Гаррі відібрано до числа учасників небезпечного змагання – Турніру Трьох Чарівників, однак проблема в тому, що всі його суперники – набагато старші і сильніші. До того ж, знаки вказують на повернення Лорда Волдеморта. Дуже скоро Гаррі належить поборотися не лише за перемогу в змаганні, але й, перед усім, за власне життя.


Тривалість: 02:37:05
Якість:
Відео:
кодек:
розмір кадру: 1280 х 536
бітрейт: 3145 кб/с

Аудіо # 1:
мова: українська
переклад: багатоголосий закадровий
кодек: 5.1
бітрейт: 448 кб/с

Аудіо # 2:
мова: англійська
переклад: оригінал
кодек: 5.1
бітрейт: 448 кб/с
MediaInfo:
File size : 4.43 GiB
Duration : 2h 37mn
Overall bit rate : 4 042 Kbps
Encoded date : UTC 2012-03-22 00:36:01
Writing application : mkvmerge v5.4.0 ('Piper') built on Mar 10 2012 19:51:58
Writing library : libebml v1.2.2 + libmatroska v1.3.0

Video
ID : 1
Format : AVC
Format/Info : Advanced Video Codec
Format profile : [email protected]
Format settings, CABAC : Yes
Format settings, ReFrames : 16 frames
Codec ID : V_MPEG4/ISO/AVC
Duration : 2h 37mn
Bit rate : 3 145 Kbps
Width : 1 280 pixels
Height : 536 pixels
Display aspect ratio : 2.40:1
Frame rate mode : Variable
Frame rate : 23.976 fps
Color space : YUV
Chroma subsampling : 4:2:0
Bit depth : 8 bits
Scan type : Progressive
Bits/(Pixel*Frame) : 0.191
Stream size : 3.36 GiB (76%)
Title : For Hurtom by Zeus62
Writing library : core 112
Encoding settings : cabac=1 / ref=16 / deblock=1:-3:-3 / analyse=0x3:0x113 / me=umh / subme=10 / psy=1 / psy_rd=1,00:0,00 / mixed_ref=1 / me_range=64 / chroma_me=1 / trellis=2 / 8x8dct=1 / cqm=0 / deadzone=21,11 / fast_pskip=1 / chroma_qp_offset=-2 / threads=9 / sliced_threads=0 / nr=0 / decimate=1 / interlaced=0 / constrained_intra=0 / bframes=16 / b_pyramid=2 / b_adapt=2 / b_bias=0 / direct=1 / weightb=1 / open_gop=0 / weightp=2 / keyint=240 / keyint_min=23 / scenecut=40 / intra_refresh=0 / rc_lookahead=50 / rc=2pass / mbtree=1 / bitrate=3145 / ratetol=1,0 / qcomp=0,60 / qpmin=3 / qpmax=51 / qpstep=4 / cplxblur=20,0 / qblur=0,5 / ip_ratio=1,40 / aq=1:1,00
Language : Ukrainian
Default : Yes
Forced : No
Color primaries : BT.709-5, BT.1361, IEC 61966-2-4, SMPTE RP177
Transfer characteristics : BT.709-5, BT.1361
Matrix coefficients : BT.709-5, BT.1361, IEC 61966-2-4 709, SMPTE RP177

Audio #1
ID : 2
Format : AC-3
Format/Info : Audio Coding 3
Mode extension : CM (complete main)
Codec ID : A_AC3
Duration : 2h 37mn
Bit rate mode : Constant
Bit rate : 448 Kbps
Channel(s) : 6 channels
Channel positions : Front: L C R, Side: L R, LFE
Sampling rate : 48.0 KHz
Bit depth : 16 bits
Compression mode : Lossy
Stream size : 503 MiB (11%)
Title : 5.1 448 kb/s by Zeus62
Language : Ukrainian
Default : Yes
Forced : No

Audio #2
ID : 3
Format : AC-3
Format/Info : Audio Coding 3
Mode extension : CM (complete main)
Codec ID : A_AC3
Duration : 2h 37mn
Bit rate mode : Constant
Bit rate : 448 Kbps
Channel(s) : 6 channels
Channel positions : Front: L C R, Side: L R, LFE
Sampling rate : 48.0 KHz
Bit depth : 16 bits
Compression mode : Lossy
Stream size : 503 MiB (11%)
Language : English
Default : No
Forced : No
Log :
[info]: frame I:1471 Avg QP:12,99 size: 96327 PSNR Mean Y:50,38 U:53,61 V:54,22 Avg:51,21 Global:50,67
[info]: frame P:51257 Avg QP:16,29 size: 34126 PSNR Mean Y:48,03 U:51,77 V:52,21 Avg:48,90 Global:48,06
[info]: frame B:173252 Avg QP:19,72 size: 10464 PSNR Mean Y:46,23 U:50,93 V:51,60 Avg:47,25 Global:46,62
[info]: consecutive B-frames: 1,6% 3,5% 7,9% 23,7% 23,0% 31,3% 4,0% 2,3% 0,6% 0,7% 0,3% 1,0% 0,1% 0,2% 0,0% 0,0% 0,0%
[info]: mb I I16..4: 8,4% 73,6% 18,0%
[info]: mb P I16..4: 3,1% 14,0% 1,5% P16..4: 36,0% 25,3% 12,1% 0,0% 0,0% skip: 8,0%
[info]: mb B I16..4: 0,3% 1,3% 0,2% B16..8: 39,0% 12,6% 2,9% direct: 6,4% skip:37,3% L0:44,2% L1:44,0% BI:11,7%
[info]: 8x8 transform intra:74,4% inter:64,2%
[info]: coded y,uvDC,uvAC intra: 72,5% 68,3% 43,4% inter: 24,5% 16,9% 2,9%
[info]: i16 v,h,dc,p: 57% 14% 6% 23%
[info]: i8 v,h,dc,ddl,ddr,vr,hd,vl,hu: 12% 8% 9% 9% 13% 13% 12% 11% 12%
[info]: i4 v,h,dc,ddl,ddr,vr,hd,vl,hu: 12% 7% 7% 9% 15% 13% 13% 11% 13%
[info]: i8c dc,h,v,p: 47% 23% 18% 12%
[info]: Weighted P-Frames: Y:4,3% UV:3,2%
[info]: ref P L0: 45,0% 8,8% 16,7% 6,3% 5,2% 3,7% 3,2% 1,8% 1,7% 1,4% 1,4% 1,2% 1,1% 1,0% 0,9% 0,7%
[info]: ref B L0: 73,4% 10,9% 4,9% 2,4% 1,8% 1,4% 1,2% 0,7% 0,6% 0,6% 0,6% 0,5% 0,5% 0,3% 0,1%
[info]: ref B L1: 92,8% 7,2%
[info]: SSIM Mean Y:0,9861924 (18,599db)
[info]: PSNR Mean Y:46,663 U:51,138 V:51,756 Avg:47,651 Global:46,928 kb/s:3143,69
Скріншоти:
Original vs Encode




Гаррі Поттер і Орден Фенікса / Harry Potter and the Order of the Phoenix (2007) 720p Ukr/Eng
Гаррі Поттер і Орден Фенікса / Harry Potter and the Order of the Phoenix (2007) 720p Ukr/Eng

Гаррі Поттер: Антологія / Harry Potter: Anthology (2001-2011) 720p Ukr/Eng


Жанр: детектив, фентезі, пригодницький, сімейний
Країна: Великобританія, США



Кіностудія / кінокомпанія: Warner Bros. Pictures, Heyday Films, Cool Music
Режисер: Девід Йєтс
Актори: Деніел Редкліфф, Руперт Грінт, Емма Вотсон, Том Фелтон, Кеті Люнг, Ральф Файнс, Алан Рікман, Майкл Гембон, Меггі Сміт, Кетрін Хантер, Імельда Стонтон та інші.

Сюжет:
Побоюючись, що голова Хогвартсу Альбус Дамблдор поширює брехливі чутки про повернення Волдеморта, Міністерство Магії призначає нового професора захисту від темних мистецтв - Долорес Амбрідж. Однак її курс лекцій із захисної магії виявляється абсолютно некорисним. Гаррі Поттер бере ініціативу у свої руки, таємно організувавши групу студентів і навчаючи їх самозахисту від злих сил.


Тривалість: 02:18:14
Якість:
Відео:
кодек:
розмір кадру: 1280 х 528
бітрейт: 3625 кб/с

Аудіо # 1:
мова: українська
переклад: професійний дубльований
кодек: 5.1
бітрейт: 640 кб/с

Аудіо # 2:
мова: англійська
переклад: оригінал
кодек: 5.1
бітрейт: 384 кб/с
MediaInfo:
File size : 4.49 GiB
Duration : 2h 18mn
Overall bit rate : 4 655 Kbps
Writing application : HandBrake rev3736
Writing library : libmkv 0.6.4.1

Video
ID : 1
Format : AVC
Format/Info : Advanced Video Codec
Format profile : [email protected]
Format settings, CABAC : Yes
Format settings, ReFrames : 16 frames
Codec ID : V_MPEG4/ISO/AVC
Duration : 2h 18mn
Bit rate : 3 625 Kbps
Width : 1 280 pixels
Height : 528 pixels
Display aspect ratio : 2.40:1
Frame rate mode : Variable
Frame rate : 23.976 fps
Color space : YUV
Chroma subsampling : 4:2:0
Bit depth : 8 bits
Scan type : Progressive
Bits/(Pixel*Frame) : 0.224
Stream size : 3.42 GiB (76%)
Writing library : core 112
Encoding settings : cabac=1 / ref=16 / deblock=1:-3:-3 / analyse=0x3:0x113 / me=umh / subme=10 / psy=1 / psy_rd=1,00:0,00 / mixed_ref=1 / me_range=64 / chroma_me=1 / trellis=2 / 8x8dct=1 / cqm=0 / deadzone=21,11 / fast_pskip=1 / chroma_qp_offset=-2 / threads=9 / sliced_threads=0 / nr=0 / decimate=1 / interlaced=0 / constrained_intra=0 / bframes=16 / b_pyramid=2 / b_adapt=2 / b_bias=0 / direct=1 / weightb=1 / open_gop=0 / weightp=2 / keyint=240 / keyint_min=23 / scenecut=40 / intra_refresh=0 / rc_lookahead=50 / rc=2pass / mbtree=1 / bitrate=3625 / ratetol=1,0 / qcomp=0,60 / qpmin=3 / qpmax=51 / qpstep=4 / cplxblur=20,0 / qblur=0,5 / ip_ratio=1,40 / aq=1:1,00
Language : English
Default : Yes
Forced : No
Color primaries : BT.709-5, BT.1361, IEC 61966-2-4, SMPTE RP177
Transfer characteristics : BT.709-5, BT.1361
Matrix coefficients : BT.709-5, BT.1361, IEC 61966-2-4 709, SMPTE RP177

Audio #1
ID : 2
Format : AC-3
Format/Info : Audio Coding 3
Mode extension : CM (complete main)
Codec ID : A_AC3
Duration : 2h 18mn
Bit rate mode : Constant
Bit rate : 640 Kbps
Channel(s) : 6 channels
Channel positions : Front: L C R, Side: L R, LFE
Sampling rate : 48.0 KHz
Bit depth : 16 bits
Compression mode : Lossy
Stream size : 633 MiB (14%)
Language : Ukrainian
Default : Yes
Forced : No

Audio #2
ID : 3
Format : AC-3
Format/Info : Audio Coding 3
Mode extension : CM (complete main)
Codec ID : A_AC3
Duration : 2h 18mn
Bit rate mode : Constant
Bit rate : 384 Kbps
Channel(s) : 6 channels
Channel positions : Front: L C R, Side: L R, LFE
Sampling rate : 48.0 KHz
Bit depth : 16 bits
Compression mode : Lossy
Stream size : 380 MiB (8%)
Language : English
Default : No
Forced : No
Log :
[info]: frame I:1617 Avg QP:12,32 size:139565 PSNR Mean Y:50,59 U:52,73 V:53,06 Avg:51,19 Global:50,69
[info]: frame P:41290 Avg QP:15,88 size: 43365 PSNR Mean Y:48,02 U:50,53 V:50,65 Avg:48,63 Global:47,72
[info]: frame B:155957 Avg QP:19,40 size: 11159 PSNR Mean Y:46,11 U:49,70 V:49,88 Avg:46,92 Global:46,42
[info]: consecutive B-frames: 1,5% 2,2% 5,6% 19,4% 16,8% 36,7% 6,2% 4,9% 1,0% 3,8% 0,4% 0,6% 0,2% 0,7% 0,0% 0,0% 0,1%
[info]: mb I I16..4: 10,5% 67,4% 22,1%
[info]: mb P I16..4: 1,9% 11,2% 1,2% P16..4: 30,4% 28,1% 16,2% 0,0% 0,0% skip:11,0%
[info]: mb B I16..4: 0,1% 1,0% 0,1% B16..8: 36,5% 11,5% 3,2% direct: 5,8% skip:41,8% L0:41,9% L1:43,2% BI:14,9%
[info]: 8x8 transform intra:77,2% inter:57,7%
[info]: coded y,uvDC,uvAC intra: 83,9% 81,7% 67,4% inter: 26,6% 20,9% 8,5%
[info]: i16 v,h,dc,p: 66% 10% 7% 16%
[info]: i8 v,h,dc,ddl,ddr,vr,hd,vl,hu: 11% 9% 9% 9% 13% 12% 13% 11% 13%
[info]: i4 v,h,dc,ddl,ddr,vr,hd,vl,hu: 11% 8% 7% 9% 14% 13% 13% 11% 13%
[info]: i8c dc,h,v,p: 52% 18% 16% 14%
[info]: Weighted P-Frames: Y:4,3% UV:3,0%
[info]: ref P L0: 45,4% 10,5% 17,3% 5,8% 5,1% 3,3% 3,1% 1,6% 1,6% 1,2% 1,2% 0,9% 0,9% 0,7% 0,7% 0,5%
[info]: ref B L0: 76,4% 11,3% 4,2% 2,1% 1,4% 1,1% 0,9% 0,6% 0,5% 0,4% 0,3% 0,3% 0,3% 0,2% 0,1%
[info]: ref B L1: 92,8% 7,2%
[info]: SSIM Mean Y:0,9854140 (18,361db)
[info]: PSNR Mean Y:46,540 U:49,901 V:50,068 Avg:47,311 Global:46,682 kb/s:3623,16
Скріншоти:
Original vs Encode




Гаррі Поттер і напівкровний Принц / Harry Potter and the Half-Blood Prince (2009) 720p Ukr/Eng | Sub Ukr/Eng
Гаррі Поттер і напівкровний Принц / Harry Potter and the Half-Blood Prince (2009) 720p Ukr/Eng | Sub Ukr/Eng

Гаррі Поттер: Антологія / Harry Potter: Anthology (2001-2011) 720p Ukr/Eng


Жанр: детектив, фентезі, пригодницький, сімейний
Країна: Великобританія, США



Кіностудія / кінокомпанія: Warner Bros. Pictures, Heyday Films
Режисер: Девід Йєтс
Актори: Деніел Редкліфф, Руперт Грінт, Емма Вотсон, Майкл Гембон, Алан Рікман, Меггі Сміт, Девід Тюліс та інші.

Сюжет:
Розпочинається шостий рік навчання Гаррі Поттера у Хогвардській школі магії та чаклунства, де йому трапляється підручник з підписом "Власником цієї книги є напівкровний принц". Поки Гаррі набирається досвіду за допомогою підручника "принца" та знаходить справжнє кохання, темні сили на чолі з Лордом Волдемортом отримують могутню підмогу...


Тривалість: 02:33:31
Якість:
Відео:
кодек:
розмір кадру: 1280 х 536
бітрейт: 3256 кб/с

Аудіо #1:
мова: українська
переклад: професійний дубльований
кодек: 5.1
бітрейт: 448 кб/с

Аудіо #2:
мова: англійська
переклад: оригінал
кодек: 5.1
бітрейт: 384 кб/с

Субтитри #1:
мова: українська
тип: пререндерні
формат: *.pgs

Субтитри #2:
мова: англійська
тип: пререндерні
формат: *.pgs
MediaInfo:
File size : 4.40 GiB
Duration : 2h 33mn
Overall bit rate : 4 104 Kbps
Encoded date : UTC 2012-03-22 19:16:17
Writing application : mkvmerge v5.4.0 ('Piper') built on Mar 10 2012 19:51:58
Writing library : libebml v1.2.2 + libmatroska v1.3.0

Video
ID : 1
Format : AVC
Format/Info : Advanced Video Codec
Format profile : [email protected]
Format settings, CABAC : Yes
Format settings, ReFrames : 16 frames
Codec ID : V_MPEG4/ISO/AVC
Duration : 2h 33mn
Bit rate : 3 256 Kbps
Width : 1 280 pixels
Height : 536 pixels
Display aspect ratio : 2.40:1
Frame rate mode : Variable
Frame rate : 23.976 fps
Color space : YUV
Chroma subsampling : 4:2:0
Bit depth : 8 bits
Scan type : Progressive
Bits/(Pixel*Frame) : 0.198
Stream size : 3.42 GiB (78%)
Title : For Hurtom by Zeus62
Writing library : core 112
Encoding settings : cabac=1 / ref=16 / deblock=1:-3:-3 / analyse=0x3:0x113 / me=umh / subme=10 / psy=1 / psy_rd=1,00:0,00 / mixed_ref=1 / me_range=64 / chroma_me=1 / trellis=2 / 8x8dct=1 / cqm=0 / deadzone=21,11 / fast_pskip=1 / chroma_qp_offset=-2 / threads=9 / sliced_threads=0 / nr=0 / decimate=1 / interlaced=0 / constrained_intra=0 / bframes=16 / b_pyramid=2 / b_adapt=2 / b_bias=0 / direct=1 / weightb=1 / open_gop=0 / weightp=2 / keyint=240 / keyint_min=23 / scenecut=40 / intra_refresh=0 / rc_lookahead=50 / rc=2pass / mbtree=1 / bitrate=3256 / ratetol=1,0 / qcomp=0,60 / qpmin=3 / qpmax=51 / qpstep=4 / cplxblur=20,0 / qblur=0,5 / ip_ratio=1,40 / aq=1:1,00
Language : Ukrainian
Default : Yes
Forced : No
Color primaries : BT.709-5, BT.1361, IEC 61966-2-4, SMPTE RP177
Transfer characteristics : BT.709-5, BT.1361
Matrix coefficients : BT.709-5, BT.1361, IEC 61966-2-4 709, SMPTE RP177

Audio #1
ID : 2
Format : AC-3
Format/Info : Audio Coding 3
Mode extension : CM (complete main)
Codec ID : A_AC3
Duration : 2h 33mn
Bit rate mode : Constant
Bit rate : 448 Kbps
Channel(s) : 6 channels
Channel positions : Front: L C R, Side: L R, LFE
Sampling rate : 48.0 KHz
Bit depth : 16 bits
Compression mode : Lossy
Stream size : 492 MiB (11%)
Language : Ukrainian
Default : Yes
Forced : No

Audio #2
ID : 3
Format : AC-3
Format/Info : Audio Coding 3
Mode extension : CM (complete main)
Codec ID : A_AC3
Duration : 2h 33mn
Bit rate mode : Constant
Bit rate : 384 Kbps
Channel(s) : 6 channels
Channel positions : Front: L C R, Side: L R, LFE
Sampling rate : 48.0 KHz
Bit depth : 16 bits
Compression mode : Lossy
Stream size : 422 MiB (9%)
Language : English
Default : No
Forced : No

Text #1
ID : 4
Format : PGS
Muxing mode : zlib
Codec ID : S_HDMV/PGS
Codec ID/Info : The same subtitle format used on BDs/HD-DVDs
Language : Ukrainian
Default : Yes
Forced : No

Text #2
ID : 5
Format : PGS
Muxing mode : zlib
Codec ID : S_HDMV/PGS
Codec ID/Info : The same subtitle format used on BDs/HD-DVDs
Language : English
Default : No
Forced : No
Log :
[info]: frame I:1597 Avg QP:10,76 size:111510 PSNR Mean Y:51,95 U:54,92 V:55,74 Avg:52,78 Global:52,37
[info]: frame P:41700 Avg QP:13,97 size: 39364 PSNR Mean Y:49,78 U:52,90 V:53,86 Avg:50,61 Global:49,60
[info]: frame B:177503 Avg QP:17,64 size: 10867 PSNR Mean Y:47,30 U:51,83 V:53,02 Avg:48,38 Global:47,82
[info]: consecutive B-frames: 1,2% 1,2% 2,4% 12,1% 14,2% 47,8% 8,9% 6,4% 1,8% 1,6% 0,6% 1,5% 0,2% 0,2% 0,0% 0,1% 0,0%
[info]: mb I I16..4: 11,7% 64,7% 23,5%
[info]: mb P I16..4: 3,4% 9,0% 1,1% P16..4: 32,6% 28,8% 16,0% 0,0% 0,0% skip: 9,1%
[info]: mb B I16..4: 0,4% 1,1% 0,1% B16..8: 37,3% 12,3% 3,3% direct: 4,9% skip:40,6% L0:46,6% L1:43,1% BI:10,3%
[info]: 8x8 transform intra:67,6% inter:52,0%
[info]: coded y,uvDC,uvAC intra: 72,6% 72,4% 54,2% inter: 21,1% 12,2% 2,8%
[info]: i16 v,h,dc,p: 80% 6% 4% 10%
[info]: i8 v,h,dc,ddl,ddr,vr,hd,vl,hu: 13% 9% 12% 8% 12% 11% 12% 10% 12%
[info]: i4 v,h,dc,ddl,ddr,vr,hd,vl,hu: 14% 8% 8% 9% 14% 13% 12% 11% 12%
[info]: i8c dc,h,v,p: 45% 26% 19% 11%
[info]: Weighted P-Frames: Y:2,7% UV:1,9%
[info]: ref P L0: 42,4% 6,3% 18,1% 7,1% 6,0% 4,2% 3,8% 2,0% 2,0% 1,5% 1,5% 1,2% 1,2% 1,0% 1,0% 0,7%
[info]: ref B L0: 67,7% 13,1% 6,0% 3,1% 2,3% 1,9% 1,5% 0,9% 0,8% 0,7% 0,6% 0,5% 0,5% 0,3% 0,1%
[info]: ref B L1: 91,2% 8,8%
[info]: SSIM Mean Y:0,9876268 (19,075db)
[info]: PSNR Mean Y:47,802 U:52,059 V:53,195 Avg:48,832 Global:48,126 kb/s:3255,74
Скріншоти:
Original vs Encode




Гаррі Поттер та Смертельні реліквії. Частина перша / Harry Potter and the Deathly Hallows: Part 1 (2010) 720p Ukr/Eng | Sub Eng
Гаррі Поттер та Смертельні реліквії. Частина перша / Harry Potter and the Deathly Hallows: Part 1 (2010) 720p Ukr/Eng | Sub Eng

Гаррі Поттер: Антологія / Harry Potter: Anthology (2001-2011) 720p Ukr/Eng


Жанр: детектив, фентезі, пригодницький, сімейний
Країна: Великобританія, США



Кіностудія / кінокомпанія: Warner Bros. Pictures, Heyday Films
Режисер: Девід Йєтс
Актори: Деніел Редкліфф, Руперт Грінт, Емма Вотсон, Гелена Бонем Картер, Ральф Фаянс, Том Фелтон, Робі Колтрейн, Алан Рікман та інші.

Сюжет:
Кінець саги розпочинається. Гаррі, Рон і Герміона повертаються у Хогвартс, щоб знайти і знищити останній горокракс Волдеморта, але коли Волдеморт дізнається про їхні плани розпочнеться небачена битва, і світ, який вони знають, вже ніколи не буде колишнім.


Тривалість: 02:26:05
Якість:
Відео:
кодек:
розмір кадру: 1280 х 536
бітрейт: 3095 кб/с

Аудіо # 1:
мова: українська
переклад: професійний дубльований
кодек: 5.1
бітрейт: 640 кб/с

Аудіо # 2:
мова: англійська
переклад: оригінал
кодек: 5.1
бітрейт: 384 кб/с

Субтитри:
мова: англійська
тип: пререндерні
формат: *.pgs
MediaInfo:
File size : 4.21 GiB
Duration : 2h 26mn
Overall bit rate : 4 128 Kbps
Encoded date : UTC 2012-03-27 22:25:56
Writing application : mkvmerge v5.4.0 ('Piper') built on Mar 10 2012 19:51:58
Writing library : libebml v1.2.2 + libmatroska v1.3.0

Video
ID : 1
Format : AVC
Format/Info : Advanced Video Codec
Format profile : [email protected]
Format settings, CABAC : Yes
Format settings, ReFrames : 16 frames
Codec ID : V_MPEG4/ISO/AVC
Duration : 2h 26mn
Bit rate : 3 095 Kbps
Width : 1 280 pixels
Height : 536 pixels
Display aspect ratio : 2.40:1
Frame rate mode : Variable
Frame rate : 23.976 fps
Color space : YUV
Chroma subsampling : 4:2:0
Bit depth : 8 bits
Scan type : Progressive
Bits/(Pixel*Frame) : 0.188
Stream size : 3.08 GiB (73%)
Title : For Hurtom by Zeus62
Writing library : core 112
Encoding settings : cabac=1 / ref=16 / deblock=1:-3:-3 / analyse=0x3:0x113 / me=umh / subme=10 / psy=1 / psy_rd=1,00:0,00 / mixed_ref=1 / me_range=64 / chroma_me=1 / trellis=2 / 8x8dct=1 / cqm=0 / deadzone=21,11 / fast_pskip=1 / chroma_qp_offset=-2 / threads=9 / sliced_threads=0 / nr=0 / decimate=1 / interlaced=0 / constrained_intra=0 / bframes=16 / b_pyramid=2 / b_adapt=2 / b_bias=0 / direct=1 / weightb=1 / open_gop=0 / weightp=2 / keyint=240 / keyint_min=23 / scenecut=40 / intra_refresh=0 / rc_lookahead=50 / rc=2pass / mbtree=1 / bitrate=3095 / ratetol=1,0 / qcomp=0,60 / qpmin=3 / qpmax=51 / qpstep=4 / cplxblur=20,0 / qblur=0,5 / ip_ratio=1,40 / aq=1:1,00
Language : Ukrainian
Default : Yes
Forced : No
Color primaries : BT.709-5, BT.1361, IEC 61966-2-4, SMPTE RP177
Transfer characteristics : BT.709-5, BT.1361
Matrix coefficients : BT.709-5, BT.1361, IEC 61966-2-4 709, SMPTE RP177

Audio #1
ID : 2
Format : AC-3
Format/Info : Audio Coding 3
Mode extension : CM (complete main)
Codec ID : A_AC3
Duration : 2h 26mn
Bit rate mode : Constant
Bit rate : 640 Kbps
Channel(s) : 6 channels
Channel positions : Front: L C R, Side: L R, LFE
Sampling rate : 48.0 KHz
Bit depth : 16 bits
Compression mode : Lossy
Stream size : 669 MiB (16%)
Language : Ukrainian
Default : Yes
Forced : No

Audio #2
ID : 3
Format : AC-3
Format/Info : Audio Coding 3
Mode extension : CM (complete main)
Codec ID : A_AC3
Duration : 2h 26mn
Bit rate mode : Constant
Bit rate : 384 Kbps
Channel(s) : 6 channels
Channel positions : Front: L C R, Side: L R, LFE
Sampling rate : 48.0 KHz
Bit depth : 16 bits
Compression mode : Lossy
Stream size : 401 MiB (9%)
Language : English
Default : No
Forced : No

Text
ID : 4
Format : PGS
Muxing mode : zlib
Codec ID : S_HDMV/PGS
Codec ID/Info : The same subtitle format used on BDs/HD-DVDs
Language : English
Default : Yes
Forced : No
Log :
[info]: frame I:1431 Avg QP:11,68 size:123457 PSNR Mean Y:50,72 U:53,57 V:53,60 Avg:51,44 Global:51,18
[info]: frame P:46603 Avg QP:14,69 size: 37431 PSNR Mean Y:48,03 U:51,99 V:52,07 Avg:48,95 Global:48,49
[info]: frame B:162103 Avg QP:18,41 size: 9067 PSNR Mean Y:46,45 U:51,70 V:51,73 Avg:47,58 Global:47,17
[info]: consecutive B-frames: 1,9% 2,8% 6,6% 27,2% 12,0% 33,0% 7,6% 6,9% 0,9% 0,2% 0,2% 0,6% 0,0% 0,0% 0,0% 0,0% 0,0%
[info]: mb I I16..4: 4,8% 70,8% 24,4%
[info]: mb P I16..4: 1,1% 7,9% 0,8% P16..4: 35,8% 29,4% 17,4% 0,0% 0,0% skip: 7,5%
[info]: mb B I16..4: 0,0% 0,6% 0,1% B16..8: 40,8% 11,4% 3,1% direct: 4,2% skip:39,7% L0:44,6% L1:47,4% BI: 8,0%
[info]: 8x8 transform intra:79,2% inter:56,5%
[info]: coded y,uvDC,uvAC intra: 86,3% 67,7% 44,1% inter: 22,6% 10,3% 1,8%
[info]: i16 v,h,dc,p: 44% 14% 11% 32%
[info]: i8 v,h,dc,ddl,ddr,vr,hd,vl,hu: 11% 8% 11% 9% 13% 12% 12% 11% 12%
[info]: i4 v,h,dc,ddl,ddr,vr,hd,vl,hu: 11% 7% 6% 11% 15% 13% 13% 11% 14%
[info]: i8c dc,h,v,p: 48% 23% 17% 12%
[info]: Weighted P-Frames: Y:4,0% UV:2,8%
[info]: ref P L0: 45,1% 6,2% 16,5% 6,5% 5,6% 4,1% 3,7% 1,9% 1,8% 1,5% 1,5% 1,4% 1,6% 1,1% 1,0% 0,7%
[info]: ref B L0: 74,9% 10,8% 4,6% 2,3% 1,6% 1,4% 1,1% 0,7% 0,6% 0,5% 0,4% 0,4% 0,4% 0,3% 0,1%
[info]: ref B L1: 93,3% 6,7%
[info]: SSIM Mean Y:0,9840357 (17,969db)
[info]: PSNR Mean Y:46,830 U:51,777 V:51,819 Avg:47,908 Global:47,451 kb/s:3094,81
Скріншоти:
Original vs Encode




Гаррі Поттер та Смертельні Реліквії. Частина друга / Harry Potter and the Deathly Hallows: Part 2 (2011) 720p Ukr/Eng | Sub Eng
Гаррі Поттер та Смертельні Реліквії. Частина друга / Harry Potter and the Deathly Hallows: Part 2 (2011) 720p Ukr/Eng | Sub Eng



Жанр: пригодницький, драма, фентезі, містерія
Країна: США



Кіностудія / кінокомпанія: Heyday Films, Moving Picture Company (MPC), Warner Bros. Pictures, Warner Bros.
Режисер: Девід Йєтс
Актори: Деніел Редкліфф, Руперт Грінт, Емма Вотсон, Ральф Файнс, Алан Рікман, Гелена Бонем Картер, Том Фелтон

Сюжет:
Остання стрічка в мегапопулярному кіносеріалі про хлопчика зі шрамом, за яким полює найсильніший темний маг свого часу. Розірвана на два кінофільми сьома книжка пригод про Гаррі Поттера завершує цикл - боротьба за владу над світом, який майже впав до ніг Темного Лорда і Смертежерів доходить свого піку біля стін Гогворцу, школи для маленьких чародіїв.


Тривалість: 02:10:26
Якість:
Відео:
кодек:
розмір кадру: 1280 х 536
бітрейт: 3830 кб/с

Аудіо #1:
мова: українська
переклад: професійний дубльований
кодек: 5.1
бітрейт: 640 кб/с

Аудіо #2:
мова: англійська
переклад: оригінал
кодек: 5.1
бітрейт: 384 кб/с

Субтитри:
мова: англійська
тип: пререндерні
формат: *.pgs
MediaInfo:
File size : 4.42 GiB
Duration : 2h 10mn
Overall bit rate : 4 856 Kbps
Movie name : HANSMER
Encoded date : UTC 2012-03-29 12:53:35
Writing application : mkvmerge v5.4.0 ('Piper') built on Mar 10 2012 19:51:58
Writing library : libebml v1.2.2 + libmatroska v1.3.0

Video
ID : 1
Format : AVC
Format/Info : Advanced Video Codec
Format profile : [email protected]
Format settings, CABAC : Yes
Format settings, ReFrames : 16 frames
Codec ID : V_MPEG4/ISO/AVC
Duration : 2h 10mn
Bit rate : 3 830 Kbps
Width : 1 280 pixels
Height : 536 pixels
Display aspect ratio : 2.40:1
Frame rate mode : Variable
Frame rate : 23.976 fps
Color space : YUV
Chroma subsampling : 4:2:0
Bit depth : 8 bits
Scan type : Progressive
Bits/(Pixel*Frame) : 0.233
Stream size : 3.40 GiB (77%)
Writing library : core 112
Encoding settings : cabac=1 / ref=16 / deblock=1:-3:-3 / analyse=0x3:0x113 / me=umh / subme=10 / psy=1 / psy_rd=1,00:0,00 / mixed_ref=1 / me_range=64 / chroma_me=1 / trellis=2 / 8x8dct=1 / cqm=0 / deadzone=21,11 / fast_pskip=1 / chroma_qp_offset=-2 / threads=9 / sliced_threads=0 / nr=0 / decimate=1 / interlaced=0 / constrained_intra=0 / bframes=16 / b_pyramid=2 / b_adapt=2 / b_bias=0 / direct=1 / weightb=1 / open_gop=0 / weightp=2 / keyint=240 / keyint_min=23 / scenecut=40 / intra_refresh=0 / rc_lookahead=50 / rc=2pass / mbtree=1 / bitrate=3830 / ratetol=1,0 / qcomp=0,60 / qpmin=3 / qpmax=51 / qpstep=4 / cplxblur=20,0 / qblur=0,5 / ip_ratio=1,40 / aq=1:1,00
Language : English
Default : Yes
Forced : No
Color primaries : BT.709-5, BT.1361, IEC 61966-2-4, SMPTE RP177
Transfer characteristics : BT.709-5, BT.1361
Matrix coefficients : BT.709-5, BT.1361, IEC 61966-2-4 709, SMPTE RP177

Audio #1
ID : 2
Format : AC-3
Format/Info : Audio Coding 3
Mode extension : CM (complete main)
Codec ID : A_AC3
Duration : 2h 10mn
Bit rate mode : Constant
Bit rate : 640 Kbps
Channel(s) : 6 channels
Channel positions : Front: L C R, Side: L R, LFE
Sampling rate : 48.0 KHz
Bit depth : 16 bits
Compression mode : Lossy
Stream size : 597 MiB (13%)
Language : Ukrainian
Default : Yes
Forced : No

Audio #2
ID : 3
Format : AC-3
Format/Info : Audio Coding 3
Mode extension : CM (complete main)
Codec ID : A_AC3
Duration : 2h 10mn
Bit rate mode : Constant
Bit rate : 384 Kbps
Channel(s) : 6 channels
Channel positions : Front: L C R, Side: L R, LFE
Sampling rate : 48.0 KHz
Bit depth : 16 bits
Compression mode : Lossy
Stream size : 358 MiB (8%)
Language : English
Default : No
Forced : No

Text
ID : 4
Format : UTF-8
Codec ID : S_TEXT/UTF8
Codec ID/Info : UTF-8 Plain Text
Language : English
Default : No
Forced : No
Log :
[info]: frame I:1246 Avg QP:12,11 size:129424 PSNR Mean Y:50,87 U:54,20 V:54,56 Avg:51,73 Global:50,99
[info]: frame P:42808 Avg QP:16,17 size: 42101 PSNR Mean Y:49,44 U:53,57 V:54,00 Avg:50,37 Global:48,06
[info]: frame B:143536 Avg QP:19,06 size: 12423 PSNR Mean Y:45,93 U:52,26 V:52,49 Avg:47,19 Global:46,32
[info]: consecutive B-frames: 4,4% 2,0% 4,2% 22,8% 13,7% 26,6% 9,8% 12,6% 1,5% 0,6% 0,6% 1,1% 0,1% 0,0% 0,0% 0,0% 0,0%
[info]: mb I I16..4: 9,8% 64,1% 26,0%
[info]: mb P I16..4: 1,4% 9,5% 1,1% P16..4: 29,8% 25,9% 14,8% 0,0% 0,0% skip:17,5%
[info]: mb B I16..4: 0,1% 1,1% 0,1% B16..8: 37,9% 12,2% 3,9% direct: 5,9% skip:38,8% L0:44,0% L1:46,2% BI: 9,8%
[info]: 8x8 transform intra:78,2% inter:54,3%
[info]: coded y,uvDC,uvAC intra: 86,0% 67,6% 41,3% inter: 26,8% 10,9% 1,7%
[info]: i16 v,h,dc,p: 61% 9% 8% 22%
[info]: i8 v,h,dc,ddl,ddr,vr,hd,vl,hu: 11% 8% 9% 9% 13% 12% 13% 11% 13%
[info]: i4 v,h,dc,ddl,ddr,vr,hd,vl,hu: 12% 7% 6% 10% 14% 13% 13% 11% 13%
[info]: i8c dc,h,v,p: 47% 23% 18% 12%
[info]: Weighted P-Frames: Y:4,9% UV:3,8%
[info]: ref P L0: 45,1% 7,1% 16,8% 6,3% 5,5% 3,7% 3,5% 1,8% 1,8% 1,5% 1,7% 1,3% 1,2% 1,0% 1,1% 0,7%
[info]: ref B L0: 76,0% 10,7% 4,3% 2,2% 1,5% 1,3% 1,0% 0,6% 0,5% 0,5% 0,4% 0,4% 0,3% 0,2% 0,1%
[info]: ref B L1: 93,5% 6,5%
[info]: SSIM Mean Y:0,9824340 (17,553db)
[info]: PSNR Mean Y:46,764 U:52,568 V:52,849 Avg:47,948 Global:46,680 kb/s:3829,53
Скріншоти:
Original vs Encode




Субтитри(Ukr,Eng) до 1-5 частин: Завантажити

Джерело: Власний ріп +
Подяка Jatx_11 та Tarick за звукові доріжки до 1-4 частини.
Українські доріжки до 1-4 частини були перероблені мною на більш якісні.
Подяка ValTriK за субтитри до 1-5 частин.
Подяка hellforces за постери до 2 та 4 частини.
Особиста оцінка: 10 - без зайвих вагань рекомендую всім!


Бронзовий реліз (на рейтинг впливає 75% завантаженого)
 Трекер:    Зареєстрований   

Завантажити / скачати фільм українською



відео для новачків



 Зареєстрований:   2012-03-29 15:54
 Розмір:   34.88 GB 
 Оцінка фільму:   9.7/10 (Голосів: 202)
   
bobo16 
Новенький


З нами з: 07.03.09
Востаннє: 04.12.16
Повідомлень: 3

2012-03-29 21:32  
панове, прибавте швидкості!
Віктор 
Відео Гуртом - субтитрування
Відео Гуртом - субтитрування


З нами з: 09.01.10
Востаннє: 04.12.16
Повідомлень: 8663

2012-03-30 15:29  
Саби в назву тему пишеться якщо їх хоча б більше до половини фільмів, а не до одного. До того ж укр. саби вийшли на блюрей до всіх частин окрім двох останніх.
Zeus62 
Відео Гуртом - команда HD
Відео Гуртом - команда HD


З нами з: 29.12.08
Востаннє: 16.11.16
Повідомлень: 330

2012-03-30 22:41  
w2958l написано:
Саби в назву тему пишеться якщо їх хоча б більше до половини фільмів, а не до одного. До того ж укр. саби вийшли на блюрей до всіх частин окрім двох останніх.

Я не знаю щодо сабів. Я їх не шукав. Якщо вони є в Блю-рей, то я їх додаю. А вони, як бачиш, були лише в шостій частині. До речі, є якийсь сайт, де зберігаються українські саби?

Віктор 
Відео Гуртом - субтитрування
Відео Гуртом - субтитрування


З нами з: 09.01.10
Востаннє: 04.12.16
Повідомлень: 8663

2012-03-30 23:08  
Zeus62 написано:
Якщо вони є в Блю-рей, то я їх додаю.

На клабі роздача 1-5 частин з укр. сабами на Blu Ray.
Добре, проїхали, відповідь вичерпна
Zeus62 написано:
Я не знаю щодо сабів. Я їх не шукав.

ValTriK 
Поважний учасник


З нами з: 18.12.11
Востаннє: 16.11.16
Повідомлень: 238

2012-03-30 23:44  
Zeus62
w2958l
Маю українські і англійські, російські саби до частин 1-6, знайшов їх в неті. Якщо треба то скажіть, я залию на файлообмінник, або скину трекер на якому вони лежать.

Tarzik 
Новенький


З нами з: 09.01.11
Востаннє: 20.05.14
Повідомлень: 1

2012-04-01 17:28  
дайте швидкості! Sad (1)
sparr0w 
Свій


З нами з: 21.11.11
Востаннє: 26.10.16
Повідомлень: 55

2012-04-01 23:03  
чудова робота!
ВЕЛИЧЕЗНЕ ДЯКУЮ і низький уклін

Zeus62 
Відео Гуртом - команда HD
Відео Гуртом - команда HD


З нами з: 29.12.08
Востаннє: 16.11.16
Повідомлень: 330

2012-04-02 03:50  
sparr0w
нема за що)

Zeus62 
Відео Гуртом - команда HD
Відео Гуртом - команда HD


З нами з: 29.12.08
Востаннє: 16.11.16
Повідомлень: 330

2012-04-09 23:57  
Окремо додано українські та англійські субтитри до 1-5 частин.
VaniushaJoker 
Частий відвідувач


З нами з: 11.11.11
Востаннє: 04.12.16
Повідомлень: 28

2012-05-06 15:24  
шо таке саби?)
kino. 
Модератор відео


З нами з: 27.06.10
Востаннє: 04.12.16
Повідомлень: 2900

2012-05-06 16:08  
Цитата:
шо таке саби?)


субтитри

LenaKovtun 
Новенький


З нами з: 23.03.12
Востаннє: 28.11.16
Повідомлень: 16

2012-05-31 19:55  
В мене дуже тихо звучать українські доріжки Cry (2) Cry (2) Що робити?
taras1994 
Почесний оцифрувальник літератури


З нами з: 23.03.12
Востаннє: 30.11.16
Повідомлень: 5096

2012-06-01 14:16  
Kmplayer? Якщо інший плеєр то гляньте налаштування еквалайзера, може режим не той.
LenaKovtun 
Новенький


З нами з: 23.03.12
Востаннє: 28.11.16
Повідомлень: 16

2012-06-02 00:49  
В мене windows media media і media player classic ні на одному нема звуку(((((((((
taras1994 
Почесний оцифрувальник літератури


З нами з: 23.03.12
Востаннє: 30.11.16
Повідомлень: 5096

2012-06-02 04:00  
LenaKovtun написано:
В мене windows media media і media player classic ні на одному нема звуку(((((((((

діло в кодеках, kmplayer шукаєш в інтернеті він безплатний і підтримує всі кодеки фільмів, принаймні ті що я зустрічав на толоці.

taras1994 
Почесний оцифрувальник літератури


З нами з: 23.03.12
Востаннє: 30.11.16
Повідомлень: 5096

2012-06-15 18:35  
Zeus62 написано:
Хогвартсі

Zeus62 написано:
Альбус

Zeus62 написано:
Вольдеморта

Виправте будь-ласка орфографічні помилки.

Віктор 
Відео Гуртом - субтитрування
Відео Гуртом - субтитрування


З нами з: 09.01.10
Востаннє: 04.12.16
Повідомлень: 8663

2012-06-15 19:06  
taras1994 написано:
Виправте будь-ласка орфографічні помилки.

Будь ласка, - пишеться без тире і виділяється комами.)

Virake 
Localize Team
Localize Team


З нами з: 07.07.09
Востаннє: 05.12.16
Повідомлень: 4057

2012-06-15 20:30  
так. але одна річ - в коментах, зовсім інша в релізі. я сам часто пориваюся виправляти помилки в постах людей, але це те саме, що намагатися зупинити лавину. та й оффтоп, до речі.
taras1994 
Почесний оцифрувальник літератури


З нами з: 23.03.12
Востаннє: 30.11.16
Повідомлень: 5096

2012-06-16 08:05  
w2958l написано:
без тире

це дифіз...
PS.дякую за виправлення, завжди намагаюся писати та говорити правльно. http://seo-fight.blogspot.com/2010/12/blog-post_23.html

LenaKovtun 
Новенький


З нами з: 23.03.12
Востаннє: 28.11.16
Повідомлень: 16

2012-08-08 21:47  
яка різниця між звуком долбі діжетал і звуком долбі діжетал 5.1?
Virake 
Localize Team
Localize Team


З нами з: 07.07.09
Востаннє: 05.12.16
Повідомлень: 4057

2012-08-08 23:04  
в Dolby Digital 5.1 ясно, яка кількість каналів, в Dolby Digital без цифр - не ясно. принаймні, наскільки я знаю.
LenaKovtun 
Новенький


З нами з: 23.03.12
Востаннє: 28.11.16
Повідомлень: 16

2012-08-09 00:00  
А по якості?
Virake 
Localize Team
Localize Team


З нами з: 07.07.09
Востаннє: 05.12.16
Повідомлень: 4057

2012-08-09 08:38  
яка тут може бути різниця в якості? у вікіпедії пишуть, що Dolby Digital - це система просторового програвання звуку. логічно, що шестиканальний звук в теорії кращий за двоканальний, але, якщо у вас усього дві колонки, різниці ви не почуєте. як я вже казав, цифри пілся назви Dolby Digital позначають кількість каналів. якщо цифр немає, значить кількість каналів невідома.
LenaKovtun 
Новенький


З нами з: 23.03.12
Востаннє: 28.11.16
Повідомлень: 16

2012-08-09 13:01  
дуже вам дякую за інфо)))) бо купила ліцензійний диск а там звук дуже тихий і написано Dolby Digital думала ліве.....
Virake 
Localize Team
Localize Team


З нами з: 07.07.09
Востаннє: 05.12.16
Повідомлень: 4057

2012-08-09 14:17  
на багатьох DVD звук дуже тихий. це виправляється ввімкненням нормалізації в плеєрі.
LenaKovtun 
Новенький


З нами з: 23.03.12
Востаннє: 28.11.16
Повідомлень: 16

2012-08-09 15:55  
як це можна зробити?)
Virake 
Localize Team
Localize Team


З нами з: 07.07.09
Востаннє: 05.12.16
Повідомлень: 4057

2012-08-09 16:13  
в звукових налаштуваннях плеєра, де ж іще.
Приклад:

LenaKovtun 
Новенький


З нами з: 23.03.12
Востаннє: 28.11.16
Повідомлень: 16

2012-08-09 17:42  
дякую спробую)))
LenaKovtun 
Новенький


З нами з: 23.03.12
Востаннє: 28.11.16
Повідомлень: 16

2012-08-11 23:17  
Велике спасибі нарешті в мене з'явився звук!!!!
Ваш часовий пояс: GMT + 2 Години

Нова тема   Відповісти Сторінка:  1, 2  наступна