Завантажити та скачати торренти українською


Ліцензія на весілля / License to Wed (2007) 1080p Ukr/Eng | sub Ukr/Eng

Нові коментарі

Нова тема   Відповісти
Автор Повідомлення
urij546724 
Відео Гуртом - фільмокрай
Відео Гуртом - фільмокрай


З нами з: 16.03.10
Востаннє: 07.12.16
Повідомлень: 5222

2012-03-26 18:32  
Ліцензія на весілля / License to Wed (2007) 1080p Ukr/Eng | sub Ukr/Eng

Альтернативні постери:

Семпли:
«First came love... then came Reverend Frank.»
«Спершу прийшла любов... потім прийшов Преподобний Френк.»


Жанр: комедія, романтичний
Країна: США (), Австралія ()



Кіностудія / кінокомпанія: Warner Bros. Pictures, Village Roadshow Pictures, Robert Simonds Productions
Режисер: Кен Куопіс (Ken Kwapis)
Актори: Робін Вільямс (Robin Williams), Менді Мур (Mandy Moore), Джон Красінскі (John Krasinski), Ерік Крістіан Олсен (Eric Christian Olsen), Крістін Тейлор (Christine Taylor), Джош Фліттер (Josh Flitter), ДеРей Девіс (DeRay Davis)
Усі актори та їх фото:
Робін Вільямс (Robin Williams), Менді Мур (Mandy Moore), Джон Красінскі (John Krasinski), Ерік Крістіан Олсен (Eric Christian Olsen), Крістін Тейлор (Christine Taylor), Джош Фліттер (Josh Flitter), ДеРей Девіс (DeRay Davis), Пітер Штраусс (Peter Strauss), Грейс Забріскі (Grace Zabriskie), Роксанн Харт (Roxanne Hart), Мінді Калінга (Mindy Kaling), Анджела Кінсі (Angela Kinsey), Рейчел Харріс (Rachael Harris), Брайан Баумгартнер (Brian Baumgartner), Джесс Розенталь (Jess Rosenthal), Вел Альмендарез (Val Almendarez), Ніколь Рендолл Джонсон (Nicole Randall Johnson), Ташана Хей (Tashana Haye), Сара Кейт Джонсон (Sarah Kate Johnson), Тревіс Т. Флорі (Travis T. Flory), Домінік Свінглер (Dominic Swingler), Девін Свінглер (Devin Swingler), Дієго Свінглер (Diego Swingler), Синтія Еттінджер (Cynthia Ettinger), Джилліан Скупа (Gillian Skupa), Пончо Ходжес (Poncho Hodges), Рубен Гарфіас (Ruben Garfias), Келслі Харпер (Kelsey Harper), Девід Куінлен (David Quinlan), Ірен Керрас (Irene Karas), Дерек Грін (Derek Green), Крістін Кеннон (Christine Cannon), Анелія Дюльгерова (Anelia Dyoulgerova), Натан Баррет (Nathan Barrett), Дарла Ванденбосщ (Darla Vandenbossche), Шон Тайсон (Sean Tyson), Чіу-Лін Там (Chiu-Lin Tam), Гай Фачон (Guy Fauchon), Грант Гершон (Grant Gershon), Кріспін Беррімор (Crispin Barrymore), Таня Батсон (Tania Batson), Йосеф Базйоурос (Joseph Bazyouros), Еді Леманн (Edie Lehmann), Пол Бент (Paul Bent), Сінді Боржін (Cindy Bourquin), Ліан Бренд (Leanna Brand), Енді Браун (Andy Brown), Карен Хоґл Браун (Karen Hogle Brown), Вікі Престон Браун (Vicky Preston Brown), Елвін Чеа (Alvin Chea), Леберта Лорейл (Leberta Loral), Пабло Кора (Pablo Cora), Клер Сілі Федорук (Claire Seely Fedoruk), Емі Фогерсон (Amy Fogerson), Рейчел Фокс (Rachelle Fox), Майкл Фрід (Michael Freed), Майкл Гейджер (Michael Geiger), Ділан Джентіле (Dylan Gentile), Скотт Графф (Scott Graff), Стівен Хармс (Steven Harms), Сандра Холл Хілл (Saundra Hall Hill), Марі Т. Ходжсон (Marie T. Hodgson), Клайдін Джейксон (Clydine Jackson), Діана Заслов Кан (Diana Zaslove Kahn), Тері Ейко Койда (Teri Eiko Koide), Боб Льюіс (Bob Lewis), Шон МакДермотт (Sean McDermott), Еліс Кірван Мюррей (Alice Kirwan Murray), Боббі Пейдж (Bobbi Page), Стів Пенс (Steve Pence), Флетчер Шерідан (Fletcher Sheridan), Кевін Ст. Клер (Kevin St. Clair), Кейхен Тейлор (Cahen Taylor), Кармен Твіллі (Carmen Twillie), Вінтер Вотсон (Winter Watson), Джон Вест (John West), Джералд Вайт (Gerald White), Ейвонн Віллямс (Eyvonne Williams), Рік Янг (Rik Young), Боб Белабан (Bob Balaban), Патриція Барретта (Patrizia Barretto), Ківон Кейн (Kevon Kane), Арні Старр (Arne Starr), Ванда Сайкес (Wanda Sykes)






Сюжет:
Молода пара завжди мріяла вступити в шлюб в сімейній церкві. Проблема в тому, що одруження в цій церкві розписані на два роки вперед. Їх пообіцяли поєднати в шлюбі тільки в тому випадку, якщо вони закінчать спеціальні курси і принесуть спеціальний диплом.


Бюджет: 20 000 000 доларів
Збори в США: 4 379 981 долар
Збори у світі: 69 307 224 долари
DVD в США: 10 738 079 доларів
Назва фільму у інших країнах
Licencia para casarse
Аргентина / Мексика / Перу


Licenca para Casar
Бразилія / Португалія


Άδεια Γάμου
Греція


Cik aramizdan
Туреччина


Adeia gamou
Греція


Brollopsprovet
Швеція


Bryllup pa prove
Норвегія


Hasta que el cura nos separe
Іспанія


Knez je podes
Чеська Республіка


Licenza di matrimonio
Італія


Lizenz zum Heiraten
Німеччина


Mariage 101
Канада (Французька назва)


Naszfrasz
Угорщина


Permis de mariage
Франція


Брачное свидетельство / Лицензия на брак
Росія
Media info
Format : Matroska
Format version : Version 2
File size : 7.68 GiB
Duration : 1h 31mn
Overall bit rate mode : Variable
Overall bit rate : 12.0 Mbps
Movie name : License to Wed (2007) [ukr_Noviy_eng_AC3_5.1] 1080p [Hurtom] by urij546724
Encoded date : UTC 2012-03-26 15:51:13
Writing application : mkvmerge v2.9.7 ('Tenderness') built on Jul 1 2009 18:43:35
Writing library : libebml v0.7.7 + libmatroska v0.8.1

Video
ID : 1
Format : AVC
Format/Info : Advanced Video Codec
Format profile : [email protected]
Format settings, CABAC : Yes
Format settings, ReFrames : 4 frames
Codec ID : V_MPEG4/ISO/AVC
Duration : 1h 31mn
Bit rate mode : Variable
Bit rate : 9 011 Kbps
Maximum bit rate : 40.0 Mbps
Width : 1 920 pixels
Height : 800 pixels
Display aspect ratio : 2.40:1
Frame rate : 23.976 fps
Color space : YUV
Chroma subsampling : 4:2:0
Bit depth : 8 bits
Scan type : Progressive
Bits/(Pixel*Frame) : 0.245
Stream size : 5.60 GiB (73%)
Title : License to Wed (2007) [ukr_Noviy_eng_AC3_5.1] 1080p [Hurtom] by urij546724
Writing library : core 104 r1703 cd21d05
Encoding settings : cabac=1 / ref=4 / deblock=1:-3:-3 / analyse=0x3:0x133 / me=umh / subme=9 / psy=1 / psy_rd=1.00:0.00 / mixed_ref=1 / me_range=32 / chroma_me=1 / trellis=2 / 8x8dct=1 / cqm=0 / deadzone=21,11 / fast_pskip=0 / chroma_qp_offset=-2 / threads=6 / sliced_threads=0 / nr=0 / decimate=1 / interlaced=0 / constrained_intra=0 / bframes=6 / b_pyramid=2 / b_adapt=2 / b_bias=0 / direct=3 / weightb=1 / open_gop=0 / weightp=2 / keyint=250 / keyint_min=23 / scenecut=40 / intra_refresh=0 / rc_lookahead=50 / rc=2pass / mbtree=1 / bitrate=9011 / ratetol=1.0 / qcomp=0.60 / qpmin=10 / qpmax=51 / qpstep=4 / cplxblur=20.0 / qblur=0.5 / ip_ratio=1.40 / aq=1:1.0
Language : English
Default : Yes
Forced : No

Audio #1
ID : 2
Format :
Format/Info : Digital Theater Systems
Codec ID : A_DTS
Duration : 1h 31mn
Bit rate mode : Constant
Bit rate : 1 510 Kbps
Channel(s) : 6 channels
Channel positions : Front: L C R, Side: L R, LFE
Sampling rate : 48.0 KHz
Bit depth : 24 bits
Compression mode : Lossy
Stream size : 987 MiB (13%)
Title : Українська доріжка
Language : Ukrainian
Default : Yes
Forced : No

Audio #2
ID : 3
Format :
Format/Info : Digital Theater Systems
Codec ID : A_DTS
Duration : 1h 31mn
Bit rate mode : Constant
Bit rate : 1 510 Kbps
Channel(s) : 6 channels
Channel positions : Front: L C R, Side: L R, LFE
Sampling rate : 48.0 KHz
Bit depth : 24 bits
Compression mode : Lossy
Stream size : 987 MiB (13%)
Title : Англійська доріжка
Language : English
Default : No
Forced : No

Text #1
ID : 4
Format : UTF-8
Codec ID : S_TEXT/UTF8
Codec ID/Info : UTF-8 Plain Text
Title : Українські субтитри
Language : Ukrainian
Default : Yes
Forced : No

Text #2
ID : 5
Format : UTF-8
Codec ID : S_TEXT/UTF8
Codec ID/Info : UTF-8 Plain Text
Title : Англійські субтитри
Language : English
Default : No
Forced : No
Тривалість: 01:47:17
Якість: 1080p
Відео:
кодек: H264
розмір кадру: 1920 х 800
бітрейт: ~ 9011 кб/с
частота кадрів: 23.976 к/с (fps)

Аудіо #1:
мова: українська
переклад: двоголосий закадровий
кодек: 5.1
бітрейт: 1510 кб/с
озвучено:
примітка: озвучка відсутня на відрізках 00:32:43, 616 - 00:32:54, 677 і 00:33:19, 701 - 00:33:50, 602

Аудіо #2:
мова: англійська
переклад: оригінал
кодек: 5.1
бітрейт: 1510 кб/с

Субтитри #1:
мова: українська
тип: програмні (м'які)
формат: *.srt
переклад: з російської urij546724

Субтитри #2:
мова: англійська
тип: програмні (м'які)
формат: *.srt

Скріншоти:


Трейлери:



Семпл
Джерело 1_________Джерело 2_________Джерело 3_________Джерело 4
У випадку, якщо з усіх джерел семпл видалять, прохання повідомити мені у ПРИВАТ


Подяка:

1. Пану karvai0 за запис звуку з ТБ.


Реліз створено: &

Особиста оцінка: Не дивився.

Реліз не зберігатиму, видалю після появи кількох сідів.


 Трекер:    Зареєстрований   

Завантажити / скачати фільм українською



відео для новачків



 Зареєстрований:   2012-03-26 23:27
 Розмір:   7.68 GB 
 Оцінка фільму:   4.6/10 (Голосів: 5)
 Прохання залишати коментарі і не тікати з роздачі.
   
xfsthe 
Оцифрування книг Гуртом
Оцифрування книг Гуртом


З нами з: 13.02.11
Востаннє: 07.12.16
Повідомлень: 279

2012-03-27 11:27  
можна українську звукову доріжку окремо?
Ваш часовий пояс: GMT + 2 Години

Нова тема   Відповісти