Завантажити та скачати торренти українською


Летіть додому / Fly Away Home (1996) 720p Ukr/Eng | Sub Eng

Нові коментарі

Нова тема   Відповісти
Автор Повідомлення
imonko 
Відео Гуртом - фільмокрай
Відео Гуртом - фільмокрай


З нами з: 20.07.08
Востаннє: 31.10.16
Повідомлень: 7309

2012-03-25 22:04  
Летіть додому / Fly Away Home (1996) 720p Ukr/Eng | Sub Eng

Летіть додому / Fly Away Home (1996) 720p Ukr/Eng | Sub Eng

Жанр: пригоди, драма, сімейний
Країна: США



Режисер: Керрол Беллард
Актори: Джеф Деніелз, Анна Пакуїн, Дана Ділейні, Террі Кінні, Холтер Грем, Джеремі Речфорд, Майкл Дж. Рейнольдс, Девід Хемблен, Кен Джеймс

Сюжет:
Перед маленькою Енні постає складне завдання - виховати зграйку гусенят, які, як і вона, залишилися без мами. Наближається зима, і якщо її нові підопічні не зможуть відлетіти на південь, то загинуть через холод в суворій Канаді.
Навчити літати птахів - таке не легко зробити людині. Тільки завзятість, сміливість і любов можуть допомогти Енні і її батькові - вони вирішують побудувати власний літак, на якому Енні повинна пролетіти весь американський континент, щоб відвести своїх пташенят туди, де тепло, де сонце, додому ...

Тривалість: 01:46:58
Якість: 720p

Відео:
(MCR)
кодек:
розмір кадру: 1280x692
бітрейт: ~5017 кб/с

Аудіо # 1:
мова: українська
переклад: двоголосий закадровий
кодек: 5.1
бітрейт: 448 кб/с
Перекладено і озвучено:

Аудіо # 2:
мова: англійська
переклад: оригінал
кодек: 5.1
бітрейт: 384 кб/с

Субтитри:
мова: англійська
тип: програмні (м'які)
формат: *.srt
MediaInfo
General
Unique ID : 211090217148452965772711343774785907534 (0x9ECE7F3C8748F37896D9F2148FFCAB4E)
Complete name : F:\ФІЛЬМИ\Повнометраж\УКР\AVC\Fly Away Home (1996) [Ukr,Eng] 720p [Hurtom] by imonko.mkv
Format : Matroska
File size : 4.37 GiB
Duration : 1h 46mn
Overall bit rate : 5 851 Kbps
Movie name : Летіть додому / Fly Away Home (1996) 720p {HDCLUB}
Encoded date : UTC 2012-03-25 19:10:51
Writing application : mkvmerge v5.2.1 ('A Far Off Place') built on Jan 2 2012 23:21:10
Writing library : libebml v1.2.3 + libmatroska v1.3.0

Video
ID : 1
Format : AVC
Format/Info : Advanced Video Codec
Format profile : [email protected]
Format settings, CABAC : Yes
Format settings, ReFrames : 5 frames
Codec ID : V_MPEG4/ISO/AVC
Duration : 1h 46mn
Bit rate : 5 017 Kbps
Width : 1 280 pixels
Height : 692 pixels
Display aspect ratio : 1.850
Frame rate : 23.976 fps
Color space : YUV
Chroma subsampling : 4:2:0
Bit depth : 8 bits
Scan type : Progressive
Bits/(Pixel*Frame) : 0.236
Stream size : 3.66 GiB (84%)
Title : Летіть додому / Fly Away Home (1996) 720p {HDCLUB}
Writing library : core 67 r1145M d2e1e1c
Encoding settings : cabac=1 / ref=5 / deblock=1:-3:-3 / analyse=0x3:0x133 / me=umh / subme=9 / psy_rd=1.0:0.0 / mixed_ref=1 / me_range=24 / chroma_me=1 / trellis=2 / 8x8dct=1 / cqm=0 / deadzone=21,11 / chroma_qp_offset=-2 / threads=6 / nr=0 / decimate=1 / mbaff=0 / bframes=3 / b_pyramid=1 / b_adapt=2 / b_bias=0 / direct=3 / wpredb=1 / keyint=250 / keyint_min=25 / scenecut=40 / rc=2pass / bitrate=5017 / ratetol=1.0 / qcomp=0.60 / qpmin=10 / qpmax=51 / qpstep=4 / cplxblur=20.0 / qblur=0.5 / ip_ratio=1.40 / pb_ratio=1.30 / aq=1:0.70
Language : English

Audio #1
ID : 2
Format : AC-3
Format/Info : Audio Coding 3
Mode extension : CM (complete main)
Codec ID : A_AC3
Duration : 1h 46mn
Bit rate mode : Constant
Bit rate : 448 Kbps
Channel(s) : 6 channels
Channel positions : Front: L C R, Side: L R, LFE
Sampling rate : 48.0 KHz
Bit depth : 16 bits
Compression mode : Lossy
Stream size : 343 MiB (8%)
Title : Новий канал
Language : Ukrainian

Audio #2
ID : 3
Format : AC-3
Format/Info : Audio Coding 3
Mode extension : CM (complete main)
Codec ID : A_AC3
Duration : 1h 46mn
Bit rate mode : Constant
Bit rate : 384 Kbps
Channel(s) : 6 channels
Channel positions : Front: L C R, Side: L R, LFE
Sampling rate : 48.0 KHz
Bit depth : 16 bits
Compression mode : Lossy
Stream size : 294 MiB (7%)
Title : Original
Language : English

Text
ID : 4
Format : UTF-8
Codec ID : S_TEXT/UTF8
Codec ID/Info : UTF-8 Plain Text
Title : Original
Language : English
Скріншоти:





Особиста оцінка: 8 - добре і зворушливе кіно.
Джерело : &
Читайте уважно що написано:
Реліз підготовлено в рамках проекту ВІДЕО ГУРТОМ

Дякувати:
xSlim та karvai0- за запис звуку
imonko - за синхронізацію звуку і реліз


Срібний реліз (на рейтинг впливає 50% завантаженого)
 Трекер:    Зареєстрований   

Завантажити / скачати фільм українською



відео для новачків



 Зареєстрований:   2012-03-25 22:04
 Розмір:   4.37 GB 
 Оцінка фільму:   9.8/10 (Голосів: 6)
   
imonko 
Відео Гуртом - фільмокрай
Відео Гуртом - фільмокрай


З нами з: 20.07.08
Востаннє: 31.10.16
Повідомлень: 7309

2012-03-25 22:07  
на прохання xSlim зробив також і 2.0 і залив на фтп, кому треба шукайте її там, 5.1 дозалиється туди через ~20 хв, тоді і почну роздавати.
Форкуш 
VIP


З нами з: 03.02.10
Востаннє: 07.12.16
Повідомлень: 1538

2012-09-28 09:42  
Цікавий фільм має бути..
Шкода що меншого розміру немає...

Ну і з постеру, можна подумати шо про путіна знято %-)

Ваш часовий пояс: GMT + 2 Години

Нова тема   Відповісти