Завантажити та скачати торренти українською


Мушкетери / The Three Musketeers (2011) 720p Ukr/Eng

Нові коментарі

Нова тема   Відповісти
Автор Повідомлення
Zeus62 
Відео Гуртом - команда HD
Відео Гуртом - команда HD


З нами з: 29.12.08
Востаннє: 16.11.16
Повідомлень: 330

2012-03-25 11:10  
Мушкетери / The Three Musketeers (2011) 720p Ukr/Eng

Мушкетери / The Three Musketeers (2011) 720p Ukr/Eng


Жанр: екшн, пригодницький, романтичний
Країна: Німеччина, Франція, Велика Британія, США



Кіностудія / кінокомпанія: Constantin Film Production, Nouvelles Editions de Films, New Legacy, Impact Pictures
Режисер: Пол У. С. Андерсон
Актори: Мет’ю Макфейден, Мілла Йовович, Люк Еванс, Рей Стівенсон, Орландо Блум, Лоґан Лерман

Сюжет:
Якщо вам набридли класичні екранізації творів Дюма, де мушкетери просто скачуть на конях і б’ються на шпагах, зустрічайте новий фільм, де бойовий плавець-ніндзя Атос разом з друзями і Міледі викрадає у венеціанців секрет побудови дирижабля і потім рятує честь королеви Франції, здобувши перемогу над гвардійцями кардинала у повітряному бою


Тривалість: 01:50:32
Якість:
Відео:
кодек:
розмір кадру: 1280 х 544
бітрейт: 5124 кб/с

Аудіо # 1:
мова: українська
переклад: багатоголосий закадровий |cтудія «Di-Art»|
кодек: 5.1
бітрейт: 384 кб/с

Аудіо # 2:
мова: англійська
переклад: оригінал
кодек: 5.1
бітрейт: 448 кб/с
MediaInfo:
File size : 4.60 GiB
Duration : 1h 50mn
Overall bit rate : 5 957 Kbps
Encoded date : UTC 2012-03-25 07:59:06
Writing application : mkvmerge v5.4.0 ('Piper') built on Mar 10 2012 19:51:58
Writing library : libebml v1.2.2 + libmatroska v1.3.0

Video
ID : 1
Format : AVC
Format/Info : Advanced Video Codec
Format profile : [email protected]
Format settings, CABAC : Yes
Format settings, ReFrames : 16 frames
Codec ID : V_MPEG4/ISO/AVC
Duration : 1h 50mn
Bit rate : 5 124 Kbps
Width : 1 280 pixels
Height : 544 pixels
Display aspect ratio : 2.35:1
Frame rate mode : Variable
Frame rate : 23.976 fps
Color space : YUV
Chroma subsampling : 4:2:0
Bit depth : 8 bits
Scan type : Progressive
Bits/(Pixel*Frame) : 0.307
Stream size : 3.87 GiB (84%)
Title : For Hurtom by Zeus62
Writing library : core 112
Encoding settings : cabac=1 / ref=16 / deblock=1:-3:-3 / analyse=0x3:0x113 / me=umh / subme=10 / psy=1 / psy_rd=1,00:0,00 / mixed_ref=1 / me_range=64 / chroma_me=1 / trellis=2 / 8x8dct=1 / cqm=0 / deadzone=21,11 / fast_pskip=1 / chroma_qp_offset=-2 / threads=9 / sliced_threads=0 / nr=0 / decimate=1 / interlaced=0 / constrained_intra=0 / bframes=16 / b_pyramid=2 / b_adapt=2 / b_bias=0 / direct=1 / weightb=1 / open_gop=0 / weightp=2 / keyint=240 / keyint_min=23 / scenecut=40 / intra_refresh=0 / rc_lookahead=50 / rc=2pass / mbtree=1 / bitrate=5124 / ratetol=1,0 / qcomp=0,60 / qpmin=3 / qpmax=51 / qpstep=4 / cplxblur=20,0 / qblur=0,5 / ip_ratio=1,40 / aq=1:1,00
Language : Ukrainian
Default : Yes
Forced : No
Color primaries : BT.709-5, BT.1361, IEC 61966-2-4, SMPTE RP177
Transfer characteristics : BT.709-5, BT.1361
Matrix coefficients : BT.709-5, BT.1361, IEC 61966-2-4 709, SMPTE RP177

Audio #1
ID : 2
Format : AC-3
Format/Info : Audio Coding 3
Mode extension : CM (complete main)
Codec ID : A_AC3
Duration : 1h 50mn
Bit rate mode : Constant
Bit rate : 384 Kbps
Channel(s) : 6 channels
Channel positions : Front: L C R, Side: L R, LFE
Sampling rate : 48.0 KHz
Bit depth : 16 bits
Compression mode : Lossy
Stream size : 304 MiB (6%)
Language : Ukrainian
Default : Yes
Forced : No

Audio #2
ID : 3
Format : AC-3
Format/Info : Audio Coding 3
Mode extension : CM (complete main)
Codec ID : A_AC3
Duration : 1h 50mn
Bit rate mode : Constant
Bit rate : 448 Kbps
Channel(s) : 6 channels
Channel positions : Front: L C R, Side: L R, LFE
Sampling rate : 48.0 KHz
Bit depth : 16 bits
Compression mode : Lossy
Stream size : 354 MiB (8%)
Language : English
Default : No
Forced : No
log:
[info]: frame I:1615 Avg QP:11,62 size:192891 PSNR Mean Y:50,59 U:52,36 V:52,45 Avg:51,11 Global:50,75
[info]: frame P:36671 Avg QP:15,19 size: 64746 PSNR Mean Y:48,00 U:49,79 V:50,00 Avg:48,51 Global:47,16
[info]: frame B:120719 Avg QP:19,83 size: 12934 PSNR Mean Y:45,24 U:47,76 V:48,14 Avg:45,94 Global:45,39
[info]: consecutive B-frames: 1,9% 3,0% 8,2% 27,5% 17,1% 37,8% 2,7% 0,8% 0,4% 0,2% 0,1% 0,1% 0,0% 0,0% 0,0% 0,0% 0,0%
[info]: mb I I16..4: 3,4% 58,2% 38,4%
[info]: mb P I16..4: 1,0% 9,6% 1,8% P16..4: 31,5% 29,4% 19,8% 0,0% 0,0% skip: 6,8%
[info]: mb B I16..4: 0,1% 0,9% 0,3% B16..8: 34,4% 13,2% 4,9% direct: 6,9% skip:39,3% L0:41,9% L1:39,0% BI:19,1%
[info]: 8x8 transform intra:71,8% inter:54,4%
[info]: coded y,uvDC,uvAC intra: 87,3% 88,8% 76,3% inter: 28,4% 27,3% 13,8%
[info]: i16 v,h,dc,p: 46% 11% 9% 34%
[info]: i8 v,h,dc,ddl,ddr,vr,hd,vl,hu: 13% 11% 10% 8% 12% 12% 11% 11% 13%
[info]: i4 v,h,dc,ddl,ddr,vr,hd,vl,hu: 11% 10% 6% 9% 14% 13% 13% 11% 13%
[info]: i8c dc,h,v,p: 52% 18% 17% 14%
[info]: Weighted P-Frames: Y:4,4% UV:2,8%
[info]: ref P L0: 44,7% 12,8% 15,7% 5,9% 5,0% 3,2% 3,1% 1,6% 1,6% 1,2% 1,2% 0,9% 0,9% 0,7% 0,8% 0,6%
[info]: ref B L0: 78,8% 9,3% 3,8% 2,0% 1,4% 1,1% 0,8% 0,6% 0,5% 0,4% 0,3% 0,3% 0,3% 0,2% 0,1%
[info]: ref B L1: 94,8% 5,2%
[info]: SSIM Mean Y:0,9878249 (19,145db)
[info]: PSNR Mean Y:45,931 U:48,274 V:48,611 Avg:46,586 Global:45,769 kb/s:5122,95
Скріншоти:
Original vs Encode





Джерело: Власний ріп +
Подяка sstonecold1 за українську доріжку.
Особиста оцінка: 10 - без зайвих вагань рекомендую всім!


 Трекер:    Зареєстрований   

Завантажити / скачати фільм українською



відео для новачків



 Зареєстрований:   2012-03-25 11:15
 Розмір:   4.6 GB 
 Оцінка фільму:   9.5/10 (Голосів: 14)
   
Інші релізи
igor911 
Відео Гуртом
Відео Гуртом


З нами з: 18.01.08
Востаннє: 09.12.16
Повідомлень: 5202

2012-04-23 16:58  
Шкода, але цей ріп не піде на багатьох медіапрогравачах через завищений ReFrames : 16 frames (див.MediaInfo). Для сумісності з більшістю медіапрогравачів ставте Level 4.1 і ReFrames для 720р не більше 9, для 1080р - не більше 4.
taras1994 
Почесний оцифрувальник літератури


З нами з: 23.03.12
Востаннє: 30.11.16
Повідомлень: 5096

2012-04-23 23:01  
А на комп'ютері він піде? Як з сюжетом дивитися можна?
igor911 
Відео Гуртом
Відео Гуртом


З нами з: 18.01.08
Востаннє: 09.12.16
Повідомлень: 5202

2012-04-24 11:15  
На компі піде, щодо сюжету - він сильно відрізняється від класики Wink (1)
Ваш часовий пояс: GMT + 2 Години

Нова тема   Відповісти