Завантажити та скачати торренти українською


Люди Ікс: Повне зібрання / X-Men: Complete Collection (2000/2003/2006/2009/2011) 720р Ukr/Eng | Sub Ukr/Eng

Нові коментарі

Нова тема   Відповісти
Автор Повідомлення
pyatachok 
Координатор літератури


З нами з: 30.01.10
Востаннє: 04.12.16
Повідомлень: 1337

2012-03-18 02:12  
Люди Ікс: Повне зібрання / X-Men: Complete Collection (2000/2003/2006/2009/2011) 720р Ukr/Eng | Sub Ukr/Eng

Люди Ікс: Повне зібрання / X-Men: Complete Collection (2000/2003/2006/2009/2011) 720р Ukr/Eng | Sub Ukr/Eng
Люди Ікс / X-Men (2000) 720р Ukr/Eng | Sub Ukr/Eng

Жанр: кінокомікс, бойовик, пригодницький, фантастика.
Країна: США


Кінокомпанія / кіностудія: 20th Century Fox / Marvel Entertainment, Bad Hat Harry Productions, The Donners' Company
Режисер: Брайан Сінгер
Актори: Х'ю Джекмен, Патрік Стюарт, Ян МакКеллен, Фамке Янссен, Джеймс Марсден, Геллі Беррі, Анна Паквін, Ребекка Ромейн
Кастинг:

Щоб зіграти Росомаху в цьому фільмі, перебрали багато акторів. Рассел Кроу був першим претендентом на його роль. Другим був Дугрей Скотт, але він віддав перевагу зйомкам в картині «Місія нездійсненна 2» . Х'ю Джекман в цей час був не дуже відомим актором. Його взяли на роль за три тижні до зйомок і вона принесла йому велику популярність. Кіану Рівз також був зацікавлений в ролі.
Сюжет:
1944. Польща. У Варшавському гетто хлопчисько-єврей на ім'я Ерік Леншерр від відчаю силою думки згинає потужню металеву браму...

Не дуже далеке майбутнє. Дівчина-підліток Марі під час свого першого в житті поцілунку доторкнулась до хлопця, і той раптом звалився на підлогу в страшних конвульсіях. А через три тижні, не виходячи з коми, хлопець помер у лікарні ...

Це тільки два приклади генетичних мутацій, названих «Генами-Ікс», що виникають тільки в період статевого дозрівання, але ці феноменальні випадки стали основою подальших подій, які врешті-решт змінили свідомість людей і соціальну картину світу.

Вчені давно вже відзначили зростаючу за останні роки кількість мутацій, в результаті яких стали з'являтися люди з екстраординарними здібностями. Відомим ученим, а також мутантом-телепатом професором Чарльзом Ксавьє була організована школа для обдарованих дітей, під прикриттям якої функціонувала група мутантів, що складається з учнів, що тільки вчаться контролювати свої незвичайні здібності та їх вчителів — досвідчених мутантів. У той самий час американський сенат з подачі сенатора Роберта Келлі прийняв закон про початок реєстрації мутантів і їх здібностей, з метою виявлення особливо небезпечних представників. Феномен мутації навіть був внесений на розгляд чергової сесії ООН.

На півночі провінції Альберта, (Канада), Марі, яка втекла з рідного дому і жахалася своїх нових здібностей, сподівається знайти найбільш безлюдне місце на Землі, щоб нікому і ніколи більше не завдавати шкоди. На її руках обов'язкові рукавиці, оскільки організм дівчини заподіює смертельні муки всьому живому, до чого торкається. Зупинившись перекусити в місцевій забігайлівці, Марі, яка для конспірації взяла собі прізвисько «Роуг», випадково зустрічається з таким же мутантом-відлюдником, як сама — Логаном, на прізвисько «Росомаха». Його здібності полягають у тому, що він має неймовірні можливості до регенерації, та ще й до того ж при його бажанні з кистей його рук витягуються по три леза з непробивного металу Адамантія. Росомаха і Роуг потрапляють у халепу — їх намагається захопити мутант за здібностями, що нагадують здібності Росомахи — Шаблезубий. Невідомо, чим би закінчилася ця сутичка, але Росомаху виручає група мутантів професора Ксавьє.

Так Росомаха і Роуг потрапляють до незвичайної школи Чарльза Ксав'є, що розташована у відлюдненому місці в штаті Нью-Йорк.

Тут молоді мутанти опиняються в світі собі подібних, найобдарованіші з яких допомагають професору Ікс не тільки займатися пошуками нових дітей-мутантів, але й успішно протистояти Магнето — тому самому єврейському хлопчику з Варшавського гетто, який через багато років тренувань і вивчення фізичних властивостей металів, повністю розкрив свій дар. Вже літній Ерік Леншерр вважає, що війна людей з мутантами неминуча, адже люди це нижча ланка в ланцюзі еволюції, яке заважає свободі нових людей — мутантів. Він намагається всіма способами прискорити цю війну і тому протистоїть всім спробам Чарльза Ксав'є знищити страх і настороженість звичайних людей щодо мутанта. Магнето зібрав команду однодумців. Він не вірить, що люди і мутанти будь-коли зможуть мирно співіснувати, і розробив план, як раз і назавжди вирішити проблему цього протистояння.

Магнето викрав сенатора Келлі — найбільш послідовного активіста за обмеження свободи мутантів у резерваціях. На ньому він випробував свій винахід — машину для створення і управління мутантами. Але ця машина викликає у людей, випадкові мутації і сенатор перетворився на еластичну водянисту істоту. Кінцевою ж метою Магнето є використання своєї машини під час саміта ООН в Нью-Йорці близько Статуї Свободи, на якому будуть присутні глави всіх великих держав світу. Злий геній сподівався перетворити великих політиків на мутантів, і таким чином примусити їх легалізувати нову людську расу. І як підсумок — прибрати владу над світом дод своїх рук.

Але планам Магнето, який захопив Марі в якості джерела енергії для своєї диво-машини (використовуючи її вміння переймати здібності інших мутантів), завадили його вічний супротивник Чарльз Ксав'є і його найкращі учні: керуюча погодою Шторм, Циклоп, що ховає під спеціальними окулярами свої смертоносні очі, телепат і телекінетик Джейн Грей, Росомаха, що також приєднався для порятунку подруги Роуг. Вони долають опір трьох помічників Магніто: звіроподібного Шаблезуба, Містик — жінки, яка здатна змінювати своє обличчя, і Жаби, що володіє здібностями жаби.

Люди Ікс зупиняють Магнето і рятують людство від насильницького поширення мутації. А самого лиходія посадили до особливої пластикової ізольованої камери.

Закінчився фільм кадрами, які демонструють сенатора Келлі, що дивиться з екрану жовтими хижими очима, такими ж, як у Містік ...
Створення фільму:
У 1994 році 20th Century Fox і продюсер Лорен Шулер Доннер купили права на екранізацію коміксу «Люди Ікс». Ендрю Кевін Уолкер був найнятий, щоб написати сценарій, а режисер Джеймс Кемерон висловив зацікавленість в керуваннях зйомками. Брайан Сінгер підписав контракт режисера в липні 1996 року. Хоч він і не шанувальник коміксів, він був зачарований аналогією забобонів і дискримінацій, пропонованих їм. Джон Логан, Джосс Уідон, Ед Соломон, Крістофер МакКуоррі і Девід Хейтер написали сценарій, але в титрах був вказаний тільки Хейтер. Зйомки фільму проходили з 22 вересня 1999 по 3 березня 2000 в Торонто.
Тривалість: 01:44:20

Якість: 720р
Відео:
кодек:
розмір кадру: 1280 х 544
бітрейт: 5980 кб/с

Аудіо # 1:
мова: українська
переклад: багатоголосий закадровий
кодек: 5.1
бітрейт: 448 кб/с

Аудіо # 2:
мова: англійська
переклад: оригінал
кодек: 5.1
бітрейт: 1510 кб/с

Аудіо # 3 (коментарі):
мова: англійська
переклад: оригінал
кодек: Vorbis 2.0
бітрейт: 80 кб/с

Переклад і озвучення виконано:
телекомпанією

Субтитри # 1:
мова: українська
тип: програмні (м'які)
формат: *.srt

Субтитри # 2:
мова: англійська
тип: програмні (м'які)
формат: *.srt

Скріншоти:



MediaInfo
Код:
General
Unique ID                        : 190752160388847143450665581214442723310 (0x8F81879EACE3F63A86506819783017EE)
Complete name                    : D:\video\X-Men\X-Men (2000)  [ukr,eng] 720p.mkv
Format                           : Matroska
Format version                   : Version 2
File size                        : 5.84 GiB
Duration                         : 1h 44mn
Overall bit rate mode            : Variable
Overall bit rate                 : 8 014 Kbps
Movie name                       : X-Men (2000)
Encoded date                     : UTC 2012-03-17 16:21:26
Writing application              : mkvmerge v4.9.1 ('Ich will') зібрано Jul 11 2011 23:53:15
Writing library                  : libebml v1.2.1 + libmatroska v1.1.1

Video
ID                               : 1
Format                           : AVC
Format/Info                      : Advanced Video Codec
Format profile                   : [email protected]
Format settings, CABAC           : Yes
Format settings, ReFrames        : 8 frames
Format settings, GOP             : N=1
Codec ID                         : V_MPEG4/ISO/AVC
Duration                         : 1h 44mn
Bit rate                         : 5 980 Kbps
Width                            : 1 280 pixels
Height                           : 544 pixels
Display aspect ratio             : 2.35:1
Frame rate                       : 23.976 fps
Color space                      : YUV
Chroma subsampling               : 4:2:0
Bit depth                        : 8 bits
Scan type                        : Progressive
Bits/(Pixel*Frame)               : 0.358
Stream size                      : 4.24 GiB (73%)
Title                            : X-Men (2000)
Writing library                  : core 67 r1139M 1024283
Encoding settings                : cabac=1 / ref=8 / deblock=1:-2:-2 / analyse=0x3:0x113 / me=umh / subme=9 / psy_rd=1.0:0.0 / mixed_ref=1 / me_range=28 / chroma_me=1 / trellis=0 / 8x8dct=1 / cqm=2 / deadzone=4,4 / chroma_qp_offset=-2 / threads=3 / nr=0 / decimate=0 / mbaff=0 / bframes=5 / b_pyramid=1 / b_adapt=2 / b_bias=0 / direct=3 / wpredb=1 / keyint=240 / keyint_min=24 / scenecut=40 / rc=2pass / bitrate=5980 / ratetol=1.0 / qcomp=0.60 / qpmin=10 / qpmax=51 / qpstep=4 / cplxblur=20.0 / qblur=0.5 / ip_ratio=1.40 / pb_ratio=1.30 / aq=1:0.80
Language                         : English
Default                          : Yes
Forced                           : No

Audio #1
ID                               : 2
Format                           : AC-3
Format/Info                      : Audio Coding 3
Mode extension                   : CM (complete main)
Codec ID                         : A_AC3
Duration                         : 1h 44mn
Bit rate mode                    : Constant
Bit rate                         : 448 Kbps
Channel(s)                       : 6 channels
Channel positions                : Front: L C R, Side: L R, LFE
Sampling rate                    : 48.0 KHz
Bit depth                        : 16 bits
Compression mode                 : Lossy
Stream size                      : 334 MiB (6%)
Language                         : Ukrainian
Default                          : Yes
Forced                           : No

Audio #2
ID                               : 3
Format                           :
Format/Info                      : Digital Theater Systems
Codec ID                         : A_DTS
Duration                         : 1h 44mn
Bit rate mode                    : Constant
Bit rate                         : 1 510 Kbps
Channel(s)                       : 6 channels
Channel positions                : Front: L C R, Side: L R, LFE
Sampling rate                    : 48.0 KHz
Bit depth                        : 24 bits
Compression mode                 : Lossy
Stream size                      : 1.10 GiB (19%)
Title                            : 5.1 1536 kbps
Language                         : English
Default                          : No
Forced                           : No

Audio #3
ID                               : 4
Format                           : Vorbis
Format settings, Floor           : 1
Codec ID                         : A_VORBIS
Duration                         : 1h 44mn
Bit rate mode                    : Variable
Bit rate                         : 80.0 Kbps
Channel(s)                       : 2 channels
Sampling rate                    : 48.0 KHz
Compression mode                 : Lossy
Stream size                      : 59.7 MiB (1%)
Title                            : Vorbis 2.0 80 kbps  Коментарі режисера
Writing library                  : aoTuV b5c  (UTC 2008-12-15)
Language                         : English
Default                          : No
Forced                           : No

Text #1
ID                               : 5
Format                           : UTF-8
Codec ID                         : S_TEXT/UTF8
Codec ID/Info                    : UTF-8 Plain Text
Language                         : Ukrainian
Default                          : Yes
Forced                           : No

Text #2
ID                               : 6
Format                           : UTF-8
Codec ID                         : S_TEXT/UTF8
Codec ID/Info                    : UTF-8 Plain Text
Language                         : English
Default                          : No
Forced                           : No
Особиста оцінка: 10 - без зайвих вагань рекомендую всім!
Люди Ікс 2 / X2 (2003) 720р Ukr/Eng | Sub Ukr/Eng

Жанр: бойовик, фантастика, трилер, кінокомікс.
Країна: США


Кінокомпанія / кіностудія: 20th Century Fox/ Marvel Enterprises, Bad Hat Harry Productions, The Donners' Company
Режисер: Браян Сінгер
Актори: Х'ю Джекмен, Патрік Стюарт, Ян МакКеллен, Фамке Янссен, Джеймс Марсден, Геллі Беррі, Анна Паквін, Ребекка Ромейн, Брюс Девісон,
Браян Кокс, Алан Каммінґ, Аарон Стенфорд, Шон Ешмор

Сюжет:
Суспільство, у якому живуть мутанти, ставиться до них дуже насторожено. Їхнє положення стає ще більш безвихідним, коли на президента нападає невідомий мутант. Це стає причиною політичного й суспільного резонансу із приводу введення реєстрації мутантів, утворюється рух проти мутантів, очолюваний Вільямом Страйкером, колишнім військовим. Страйкер втілює свою програму, організувавши штурм будинку професора Ксав'є. Магнето, який втік із пластикової в'язниці, пропонує Людям Ікс об'єднатися й боротися разом проти їхнього спільного ворога. Цього разу перед Людьми Ікс стоїть найсерйозніше завдання: зараз у їхніх руках долі не тільки всіх мутантів, але й усього людства.
Створення фільму:
Fox найняла Девіда Хейтера і Зака Пенна, щоб написати свої власні сценарії для фільму, які Брайан Сінгер буде вибирати, з метою виходу фільму на екрани в грудні 2002 року. Деякі частини фільму були засновані на коміксі X-Men: God Loves, Man Kills, хоча персонаж Вільям Страйкер був змінений з преподобного на полковника. Майкл Догерті і Ден Харріс були найняті, щоб переписати сценарій в лютому 2002 року. Зйомки почалися 17 червня 2002 року в Ванкувері і закінчилися в листопаді, але вихід фільму відбувся 1 травня 2003.
Тривалість: 02:13:47

Якість: 720p
Відео:
кодек:
розмір кадру: 1280 х 532
бітрейт: 4 575 кб/с

Аудіо # 1:
мова: українська
переклад: професійний дубльований
кодек: 5.1
бітрейт: 448 кб/с

Аудіо # 2:
мова: англійська
переклад: оригінал
кодек: 5.1
бітрейт: 1510 кб/с

Аудіо # 3 (коментарі):
мова: англійська
переклад: оригінал
кодек: Vorbis 2.0
бітрейт: 80 кб/с

Переклад і озвучення виконано:
Творчим об'єднанням "Дія" за сприяння AdiozProduction studio на замовлення телекомпанії
Про дубляж:
Режисер дубляжу: Георгій Гавриленко
Переклад та адаптація: Андрій Безребрий
Текст читали: Х'ю Джекман/Лоґан/Росомаха - Михайло Жонін, Валентина Сова, Володимир Терещук, Анатолій Пашнін, Олена Узлюк, Дмитро Завадський, Євген Пашин, Патрік Стьюарт/Професор Ксавьєр - Олег Лепенець
Субтитри # 1 (окремим файлом):
мова: українська
тип: програмні (м'які)
формат: *.srt
переклад з російської: Dark Invader

Субтитри # 2:
мова: англійська
тип: програмні (м'які)
формат: *.srt

Скріншоти:

MediaInfo
Код:
General
Unique ID                        : 240680675195789873832658687857955602613 (0xB5116974DDD1C3089F3509BED0EE80B5)
Complete name                    : D:\video\X-Men\X2 (2003) [ukr,eng] 720p [hurtom].mkv
Format                           : Matroska
Format version                   : Version 2
File size                        : 6.18 GiB
Duration                         : 2h 13mn
Overall bit rate mode            : Variable
Overall bit rate                 : 6 610 Kbps
Movie name                       : X-Men: First Class (2011)
Encoded date                     : UTC 2012-03-17 21:42:16
Writing application              : mkvmerge v5.4.0 ('Piper') built on Mar 10 2012 13:34:39
Writing library                  : libebml v1.2.3 + libmatroska v1.3.0

Video
ID                               : 1
Format                           : AVC
Format/Info                      : Advanced Video Codec
Format profile                   : [email protected]
Format settings, CABAC           : Yes
Format settings, ReFrames        : 8 frames
Codec ID                         : V_MPEG4/ISO/AVC
Duration                         : 2h 13mn
Bit rate                         : 4 575 Kbps
Width                            : 1 280 pixels
Height                           : 532 pixels
Display aspect ratio             : 2.40:1
Frame rate                       : 23.976 fps
Color space                      : YUV
Chroma subsampling               : 4:2:0
Bit depth                        : 8 bits
Scan type                        : Progressive
Bits/(Pixel*Frame)               : 0.280
Stream size                      : 4.15 GiB (67%)
Title                            : X2 (2003)
Writing library                  : core 67 r1139M 1024283
Encoding settings                : cabac=1 / ref=8 / deblock=1:-2:-2 / analyse=0x3:0x113 / me=umh / subme=9 / psy_rd=1.0:0.0 / mixed_ref=1 / me_range=28 / chroma_me=1 / trellis=0 / 8x8dct=1 / cqm=2 / deadzone=4,4 / chroma_qp_offset=-2 / threads=3 / nr=0 / decimate=0 / mbaff=0 / bframes=5 / b_pyramid=1 / b_adapt=2 / b_bias=0 / direct=3 / wpredb=1 / keyint=240 / keyint_min=24 / scenecut=40 / rc=2pass / bitrate=4575 / ratetol=1.0 / qcomp=0.60 / qpmin=10 / qpmax=51 / qpstep=4 / cplxblur=20.0 / qblur=0.5 / ip_ratio=1.40 / pb_ratio=1.30 / aq=1:0.75
Language                         : English
Default                          : Yes
Forced                           : No

Audio #1
ID                               : 2
Format                           : AC-3
Format/Info                      : Audio Coding 3
Mode extension                   : CM (complete main)
Codec ID                         : A_AC3
Duration                         : 2h 13mn
Bit rate mode                    : Constant
Bit rate                         : 448 Kbps
Channel(s)                       : 6 channels
Channel positions                : Front: L C R, Side: L R, LFE
Sampling rate                    : 48.0 KHz
Bit depth                        : 16 bits
Compression mode                 : Lossy
Stream size                      : 429 MiB (7%)
Language                         : Ukrainian
Default                          : Yes
Forced                           : No

Audio #2
ID                               : 3
Format                           :
Format/Info                      : Digital Theater Systems
Codec ID                         : A_DTS
Duration                         : 2h 13mn
Bit rate mode                    : Constant
Bit rate                         : 1 510 Kbps
Channel(s)                       : 6 channels
Channel positions                : Front: L C R, Side: L R, LFE
Sampling rate                    : 48.0 KHz
Bit depth                        : 24 bits
Compression mode                 : Lossy
Stream size                      : 1.41 GiB (23%)
Title                            : 5.1 1536 kbps
Language                         : English
Default                          : No
Forced                           : No

Audio #3
ID                               : 4
Format                           : Vorbis
Format settings, Floor           : 1
Codec ID                         : A_VORBIS
Duration                         : 2h 13mn
Bit rate mode                    : Variable
Bit rate                         : 80.0 Kbps
Channel(s)                       : 2 channels
Sampling rate                    : 48.0 KHz
Compression mode                 : Lossy
Stream size                      : 76.6 MiB (1%)
Title                            : Vorbis 2.0 80 kbps  Коментарi
Writing library                  : aoTuV b5c  (UTC 2008-12-15)
Language                         : English
Default                          : No
Forced                           : No

Text
ID                               : 5
Format                           : UTF-8
Codec ID                         : S_TEXT/UTF8
Codec ID/Info                    : UTF-8 Plain Text
Language                         : English
Default                          : No
Forced                           : No
Особиста оцінка: 10 - без зайвих вагань рекомендую всім!
Люди Ікс: Остання битва / X-Men: The Last Stand (2006) 720p Eng | Sub Ukr/Eng

Жанр: кінокомікс, фантастика, бойовик, пригодницький
Країна: США


Кінокомпанія/кіностудія: 20th Century Fox/ Marvel Entertainment, Ingenious Film Partners, The Donners' Company
Режисер: Бретт Ретнер
Актори: Х'ю Джекман, Геллі Беррі, Йен Маккеллен, Патрік Стюарт, Фамке Янссен, Анна Пакуін, Келсі Греммер, Джеймс Марсден, Ребекка Ромейн, Шон Ешмор, Аарон Стенфорд, Вінні Джонс, Еллен Пейдж, Деніел Кадмор, Бен Фостер, Майкл Мерфі, Данія Рамірес, Шохре Агдашлу, Йозеф Зоммер, Білл Дьюк, Ерік Дейн

Сюжет:
На цей раз Людям Ікс на чолі з професором Чарльзом Ксавьє доводиться вступити в битву з самою еволюцією в особі їх воскреслого товариша по команді ... Джейн Грей, яка відроджена у вигляді Темного Фенікса і представляє небезпеку не тільки для самої себе, але і для мутантів і для всієї людської раси. А коли нарешті знайдено можливі ліки — те, що може звернути генетичні мутації — настає час вирішальної битви між Людьми Ікс, Братством Магнето і людством.
Створення фільму:
Брайан Сінгер хотів знімати третій фільм одночасно з четвертим. 16 липня 2004, він пішов з проекту для роботи над фільмом «Повернення Супермена», встигнувши завершити історію про Фенікса і впровадити у фільм Емму Фрост, роль якої була призначена для Сігурні Уівер. Крім того, Сінгер також хотів продемонструвати характери Роуг, Айсберга і Піро. Саймон Кінберг і Зак Пенн були найняті в наступному місяці, а серія «Обдаровані» Джосс Уідон з коміксу Astonishing X-Men була запропонована як основна історія. Меттью Вон піднявся на борт в якості режисера в лютому 2005 року, але залишив через напружений графік. Бретт Ретнер зайняв це місце в червні і зйомки фільму почалося 2 серпня 2005 року.
Цікаві факти:
- Фільм знятий за сценарієм Саймона Кінберг (автора остаточних редакцій «Електри» і «Фантастичної четвірки»).
Саймон Кінберг - про своє ставлення до проекту:


Цитата:
Я - правовірний читач коміксів, для мене «Люди Ікс» - це священне. Тому, коли хлопці з Fox і Marvel прийшли до мене і запитали, чи не бажаю я попрацювати з ними, я був просто в захваті! Я виріс на цих книгах, і тепер наше завдання - зробити третій фільм найсильнішим в трилогії. Це буде наше «Повернення короля»!

- Для зйомок епізодів, дія в яких відбувається кілька років тому, актори Патрік Стюарт і Йен Маккеллен були «омолоджені» за допомогою комп'ютерної графіки. Для цього зокрема були використані фотографії Стюарта зі зйомок першого сезону серіалу «Зоряний шлях: Наступне покоління» 1987 року.
Нагороди та номінації:
Нагороди:
- 2007 - Сатурн (приз Академії наукової фантастики, фентезі та фільмів жахів США) в категорії «Краща актриса другого плану» (Фамке Янссен за роль Джин Грей)
Тривалість: 01:44:05

Якість: 720p
Відео:
кодек:
розмір кадру: 1280 х 532
бітрейт: 6995 кб/с

Аудіо # 1:
мова: англійська
переклад: оригінал
кодек: 5.1
бітрейт: 1510 кб/с

Аудіо # 2 (коментарі):
мова: англійська
переклад: оригінал
кодек: Vorbis 2.0
бітрейт: 65 кб/с

Субтитри # 1 (окремим файлом):
мова: українська
тип: програмні (м'які)
формат: *.srt
переклад з російської: Dark Invader

Субтитри # 2:
мова: англійська
тип: програмні (м'які)
формат: *.srt

Скріншоти:

MediaInfo
Код:
Xeral
UniqueID/String                  : 191084263528105902317801313078093039638 (0x8FC17D919AB6CE318BD3DC99B5304816)
Nome completo                    : D:\video\X-Men (Trilogy)\X3 (2006) 720p BluRay -SH (2).mkv
Formato                          : Matroska
Versión do formato               : Version 2
Tamaño do arquivo                : 6,23 GiB
Duración                         : 1h 44mn
OverallBitRate_Mode/String       : BitRate variable
BitRate total                    : 8 573 Kbps
Nome da película                 : X-Men: The Last Stand (2006)
Data de codificación             : UTC 2012-03-17 22:27:24
Aplicación codificadora          : mkvmerge v5.4.0 ('Piper') built on Mar 10 2012 13:34:39
Librería de codificación         : libebml v1.2.3 + libmatroska v1.3.0

Vídeo
ID                               : 1
Formato                          : AVC
Formato/                         : Advanced Video Codec
Perfil do formato                : [email protected]
Format_Settings_CABAC/String     : Si
Format_Settings_RefFrames/String : 6 frame
CodecID                          : V_MPEG4/ISO/AVC
Duración                         : 1h 44mn
Bit rate                         : 6 995 Kbps
Ancho                            : 1 280 pixels
Alto                             : 532 pixels
Relación de aspecto              : 2,40:1
Frame rate                       : 23,976 fps
ColorSpace                       : YUV
ChromaSubsampling                : 4:2:0
BitDepth/String                  : 8 bits
ScanType/String                  : Entrelazado progresivo
Bits/(Pixel*Frame)               : 0.428
StreamSize/String                : 4,96 GiB (80%)
Título                           : X-Men: The Last Stand (2006)
Librería de codificación         : core 67 r1145M d2e1e1c
Parámetros de codificación       : cabac=1 / ref=6 / deblock=1:-2:-2 / analyse=0x3:0x113 / me=umh / subme=9 / psy_rd=0.8:0.0 / mixed_ref=1 / me_range=28 / chroma_me=1 / trellis=0 / 8x8dct=1 / cqm=2 / deadzone=4,4 / chroma_qp_offset=-2 / threads=3 / nr=0 / decimate=0 / mbaff=0 / bframes=4 / b_pyramid=1 / b_adapt=2 / b_bias=0 / direct=3 / wpredb=1 / keyint=240 / keyint_min=24 / scenecut=40 / rc=2pass / bitrate=6995 / ratetol=1.0 / qcomp=0.60 / qpmin=10 / qpmax=51 / qpstep=4 / cplxblur=20.0 / qblur=0.5 / ip_ratio=1.40 / pb_ratio=1.30 / aq=1:0.75
Linguaxe                         : English
Default                          : Si
Forced                           : No

Audio #1
ID                               : 2
Formato                          :
Formato/                         : Digital Theater Systems
Perfil do formato                : ES
CodecID                          : A_DTS
Duración                         : 1h 44mn
Tipo de Bitrate                  : BitRate constante
Bit rate                         : 1 510 Kbps
Canle(s)                         : 7 canle / 6 canle
Posicións da canle               : Front: L C R, Side: L R, Back: C, LFE / Front: L C R, Side: L R, LFE
Ratio de mostraxe                : 48,0 KHz
BitDepth/String                  : 24 bits
StreamSize/String                : 1,10 GiB (18%)
Título                           : 5.1 1536 kbps
Linguaxe                         : English
Default                          : No
Forced                           : No

Audio #2
ID                               : 3
Formato                          : Vorbis
Format_Settings_Floor            : 1
CodecID                          : A_VORBIS
Duración                         : 1h 44mn
Tipo de Bitrate                  : BitRate variable
Bit rate                         : 65,0 Kbps
Canle(s)                         : 2 canle
Ratio de mostraxe                : 48,0 KHz
StreamSize/String                : 48,4 MiB (1%)
Título                           : Vorbis 2.0 80 kbps @ Коментарi
Librería de codificación         : aoTuV b5c  (UTC 2008-12-15)
Linguaxe                         : English
Default                          : No
Forced                           : No

Texto
ID                               : 4
Formato                          : UTF-8
CodecID                          : S_TEXT/UTF8
/                                : UTF-8 Plain Text
Linguaxe                         : English
Default                          : No
Forced                           : No
Особиста оцінка: 10 - без зайвих вагань рекомендую всім!
Люди Iкс: Початок. Росомаха / X-Men Origins: Wolverine (2009) 720p Ukr/Eng | Sub Ukr/Eng

Жанр: кінокомікс, бойовик, пригодницький, фантастика.
Країна: США


Кінокомпанія / кіностудія: 20th Century Fox / Marvel Entertainment, The Donners' Company, Seed Productions, Ingenious Film Partners, Big Screen Productions, Dune Entertainment
Режисер: Гевін Худ
Акторський склад і персонажі:
- Х'ю Джекмен — Джеймс Хоулетт (Логан)/Росомаха («Зброя Х»), мутант зі здібністю до регенерації і кістяними кігтями, скелет якого був вкритий метеоритним металом адмантієм, член Команди Ікс У. Страйкера (потім Людей Ікс)
- Трой Сіван Меллет — Джеймс Хоулетт у дитячому віці
- Лів Шрайбер — Віктор Крід, старший брат Джеймса і його супротивник, мутант зі здібністю до регенерації та звіриними кігтями, член Команди Ікс У. Страйкера
- Майкл Джеймс Олсен — Віктор Крід у підлітковому віці
- Денні Х'юстон — майор Уільям Страйкер (пізніше полковник), військовий офіцер, ініціатор створення Команди Ікс, розробник програми «Зброя ХІ», яка полягала у дослідженні здібностей мутантів і поєднанні їх у одному тілі задля створення непереможного керованого воїна. Його син Джейсон — мутант, який також став об'єктом його експериментів, бо його здібності призвели до того, що його мати покінчила життя самогубством.
- Лінн Коллінз — Кайла Сільверфокс, канадська вчителька, у яку був закоханий Джеймс Логан, мутант, що володіє тактильним гіпнозом, працювала на У. Страйкера
- Тейлор Кітш — Ремі Ет'єн ЛеБо/Гамбіт, вуличний шахрай з Нового Орлеану, гравець у покер, мутант, що може маніпулювати енергією тіл і єдиний, хто зміг втекти з «Острова», де Страйкер тримав мутантів
- Will.i.am — Джон Рейз, мутант зі здібністю телепортації, член Команди Ікс
- Кевін Дюранд — Фредерік Дж. Дюкс, мутант з величезною силою і витримкою, порушення обміну речовин якого призвело до ожиріння, член Команди Ікс
- Райан Рейнольдс — Вейд Вілсон, говіркий член Команди Ікс, що майстерно володіє мечами, пізніше став «Зброєю ХІ» Дедпулом
- Скотт Адкінс — Дедпул («Зброя ХІ»), контрольований комп'ютером Страйкера Вейд Вілсон, у якому шляхом кількох операцій були поєднані сили різних мутантів: регенерація, телепортація, енергетичні промені з очей, втягування зброї до рук, велика сила і спритність тощо. Оскільки Страйкеру набридло те, що Вейд постійно говорить, Дедпул має зашитий рот.
- Деніел Хенні — Агент Зеро, член Команди Ікс, приятель Фреда Дюкса, спритний і майстерний стрілець
- Домінік Монаган — Кріс Бредлі, мутант-технопат, член Команди Ікс, пізніше власник парку атракціонів
- Тім Покок — Скотт Саммерс, юний мутант, з очей якого струмують енергетичні промені, що змушує його носити окуляри з червоними скельцями, в'язень «Острова»
- Таїна Тоззі — Емма Грейс Фрост, молодша сестра Кайли, мутант з алмазною шкірою
- Пітер О'Браєн — Джон Хоулетт, названий батько Джеймса
- Еліс Паркінсон — Елізабет Хоулетт, мати Джеймса
- Аарон Джеффері — Томас Логан, справжній батько Джеймса, який його вбив, і вбивця Джона Хоулетта
- Макс Куллен і Джулія Блейк — літнє подружжя Тревіс і Хізер Хадсони, яке прихистило Джеймса на своїй фермі
- Патрік Стюарт — Чарльз Ксав'єр, мутант-телепат, що вивів ув'язнених мутантів з «Острова»
- Ашер Кедді — Керол Фрост, лікарка, працівниця Страйкера

Також одного з гравців у карти зіграв професійний гравець у покер Деніел Негреану.
Кастинг:
Роль юного Росомахи спочатку була відведена Коді Сміт-МакФі з грудня 2007 року, але він вибрав зйомки у фільмі «Дорога». Мішель Монаган відмовилася від головної жіночої ролі через якісь конфлікти, незважаючи на те, що вона проявляла ентузіазм в роботі з Х'ю Джекманом. Домінік Монаган по початку повинен був грати Барнелла Бохаска, проте виконав роль Болта.
Сюжет:
У 1845 році (в Альберті, Канада) хворий юний Джеймс Хоулетт стає свідком вбивства свого батька Джона Томасом Логаном, батьком його приятеля Віктора Кріда. Потрясіння активує мутацію Джеймса і з його рук виходять довгі кістяні кігті. Джеймс встромляє їх у Томаса Логана, той перед смертю говорить, що він його справжній батько, а не Джон Хоулетт. Разом зі старшим братом Віктором Джеймс тікає з дому. Ставши дорослими, брати беруть участь у Громадянській, Першій Світовій, Другій Світовій і В'єтнамській війнах. У В'єтнамі Віктор відмовляється виконати наказ офіцера і вбиває того. Віктора оточують і брат приходить йому на допомогу. Їх обох засуджують до розстрілу і о десятій годині виконують вирок. Брати залишаються живими і потрапляють до військової команди мутантів (разом зі стрільцем Агентом Зеро, найманцем Вейдом Вілсоном, телепортером Джоном Рейзом, непереможним Фредом Дюксом і технопатом Крісом Бредлі) майора Уільяма Страйкера. Вони вирушають до Африки, щоб знайти метеоритний метал адамантій. Проте методи команди не влаштовують Джеймса і він йде з неї.

Через шість років Джеймс Логан вже живе у Канаді з подружкою Кайлою Сільверфокс і працює лісорубом. Полковник Уільям Страйкер повідомляє йому, що хтось вбиває колишніх членів їх команди (Вілсон і Бредлі мертві) та підозрює в цьому Віктора. Джеймс відмовляється йти зі Страйкером. Невдовзі після цього Віктор вбиває Кайлу та перемагає свого брата у бійці. Страйкер пропонує Джеймсу зброю для вбивства Віктора. Цього разу Джеймс згоден. Вони прибувають на військову базу, де скелет Джеймса вкривають адамантієм, який полковник все-таки знайшов. Джеймс також отримує новий жетон, де просить вибити ім'я Росомаха, яке запозичив з індіанської казки, яку йому розповіла Кайла. Тепер він «Зброя Х». Страйкер хоче стерти йому пам'ять, але Джеймс, почувши це, тікає. Наздогнати і вбити його Страйкер відправляє Агента Зеро. Джеймс потрапляє на ферму літнього подружжя Хадсонів, які допомагають Джеймсу, але їх вбиває Зеро. Логан тікає на мотоциклі. Його переслідують гелікоптер Зеро і два військових хаммера. Проте Джеймс позбавляється їх і вбиває Агента Зеро.

Тепер Джеймс вирушає до Лас-Вегасу, де знаходить Джона Рейза і Фреда Дюкса, який став схожим на кульку через порушення метаболізму. Вони повідомляють, що Віктор насправді працює разом зі Страйкером і не тікав від нього. Вони ловлять мутантів і привозять на «Острів». Де він, знає лише Ремі Е. ЛеБо (Гамбіт) з Нового Орлеану, який звідти втік. Джеймс і Джон їдуть його шукати. Гамбіт помічає в Логана жетони і атакує його. Під час бійки, Джеймс з'ясовує, що Віктор вбив Джона (а до того Фреда). Віктору вдається втекти, а переможений Гамбіт погоджується відвезти Логана на «Острів» (Трі-Майл Айленд з атомною електростанцією) на літаку, який він виграв у карти.

На «Острові» Логан з'ясовує, що Кайла не померла, а її вбивство було інсценоване Віктором за допомогою гідрохлоротіазиду. Кайла працювала на Страйкера, тому що той захопив її сестру Емму, шкіра якої може набувати твердості алмазу. Кайла ж мала здібність до тактильного гіпнозу. Джеймс йде. Віктор просить у Страйкера адамантій, проте полковник відповідає, що операцію він не витримає. Кайла говорить Віктору, що Страйкер їх використав. Тоді Крід нападає на неї, Логан чує крик і повертається. Він перемагає брата у сутичці, а потім звільняє ув'язнених дітей-мутантів. Страйкер висилає на їх перехоплення Дедпула («Зброя ХІ»), якого він створив з Вейда Вілсона, поєднавши у ньому здібності інших піддослідних і вбитих мутантів. Дедпул починає битися з Логаном, а Кайла веде дітей у інший бік, де їх атакує охорона. Кайла поранена і відпускає їх самих, тепер їх веде голос, який лунає у голові Скотта Саммерса. Віктор приходить на допомогу Джеймсу, і тому вдається вбити Дедпула. Після цього Віктор залишає Логана самого. Джеймс відправляє Гамбіта вивести дітей, проте їх вже зустрів Чарльз Ксав'єр, щоб відвезти до своєї школи для мутантів.

Кайла знаходить Логана і він хоче винести її з острова, але в нього стріляє адамантовими кулями Страйкер. Дві кулі потрапляють у голову, що призводить до втрати пам'яті. Тепер полковник хоче вбити і Кайлу, але вона змушує його кинути револьвер і піти, після чого помирає. Гамбіт повертається і знаходить Логана, який нічого не пам'ятає. Джеймс хоче піти сам і Гамбіт летить. Далі сцени йдуть вже під час титрів. Військова поліція наздоганяє Страйкера, йому повідомляють, що до нього є питання з приводу смерті генерала Мансона (генерала Страйкер убив, коли той хотів припинити його програму щодо дослідів над мутантами, через те, що їх причина особиста, бо син полковника теж мутант). Дедпул з відрубаною головою виявляється живим. Джеймс випиває у японському барі, за його словами, щоб згадати.
Створення фільму:
Розробка:

Девід Беніофф, великий фанат коміксів, чекав цього проекту майже три роки, перш ніж він був найнятий, щоб написати сценарій в жовтні 2004 року. У процесі підготовки сценарію він перечитав комікс Баррі Віндзор-Сміта «Weapon X» і комікс Кріса Клермонта і Френка Міллера 1982 року, обмежену серію про Росомаху (його улюблений сюжет). Крім того, Беніофф для натхнення, прочитав ще одну обмежену серію «Origin», що розповідає про життя Росомахи до проекту Зброя X. Х'ю Джекман теж працював над сценарієм, в основному над своїм персонажем, він хотів зробити його характер трохи іншим. Скіп Вудс, який написав сценарій для «Хітмена», пізніше був найнятий, щоб переглянути й переписати сценарій Беніоффа. Сценарій Беніоффа був призначений для «темної і трохи більш жорстокої» історії і в системі рейтингів був записаний в категорію R, хоча він був покладений на продюсерів і режисера. Джекман був проти рейтингу R. У підсумку фільм занесли в категорію PG-13.


Кадр з beta-версії: Невідрендерене руйнування АЕС на Острові.


Ідея показати Дедпула в кіно з'явилася ще в 2003 році у Райана Рейнольдса і Девіда С. Гойер під час їхньої співпраці на зйомках фільму «Блейд 3: Трійця» компанії New Line Cinema. Однак проект розвалився і Дедпула, якого зіграв Рейнольдс, вирішили показати в цьому фільмі як одного з головних героїв. Девід Беніофф описав його як «жартівливого найманця». Персонаж Тейлор Кітч, Гамбіт, був описаний на зразок Піро (актор Аарон Стенфорд), який з'явився в оригінальній трилогії. Відносини Логана і вищезгаданого Піро були схожі з відносинами Логана і Гамбіту. В обох випадках персонажі один одного недолюблюють. Девід Ейєр також сприяв написання сценарію. Беніофф закінчив свою роботу над фільмом в жовтні 2006 року, а Джекман деякий час не брав участь у створенні фільму, оскільки знімався в драмі 2007 року «Австралія». До страйку гільдії сценаристів США (2007-2008), були найняті Джеймс Вандербілт і Скотт Сільвер для переписання сценарію.

Гевін Худ був оголошений в якості режисера проекту в липні 2007 року для релізу в 2008. Раніше, Брайан Сінгер (який зняв «Люди Ікс» та «Люди Ікс 2») і Бретт Ретнер (який зняв «Люди Ікс: Остання битва») були зацікавлені поверненням у франшизу, а Олександр Ажа і Лен Уайзман також хотіли роботу. Режисерське крісло було запропоновано навіть Заку Снайдеру, але той відхилив пропозицію, через роботу над бойовиком «Хранителі». Х'ю Джекман помічав деяку паралель між Логаном і головним героєм попереднього фільму Гевіна Худа «Цоці» (2005). Худ хотів зробити Логану інші почуття, щоб фільм не був схожий на його попередні картини. У жовтні, 20th Century Fox оголосила, що 1 травня 2009 року відбудеться реліз фільму.
Зйомки:

Попередні зйомки фільму проходили в австралійської студії Fox в Сіднеї, в кінці 2007 року. Основні зйомки почалася 18 січня 2008, в Новій Зеландії. Деякі частини фільму знімали в Данідіні. Під час зйомок в Куїнстауні, виникли проблеми зі зберіганням вибухових матеріалів на місцевому ковзанці.
Яскраві епізодичні ролі:
Фільм включає в себе численні ролі камео молодих персонажів з попередніх фільмів про Людей Ікс, в тому числі і Джейсона Страйкера (син Вільяма Страйкера з фільму «Люди Ікс 2», якого він тримає в кріогенних підвісках). Існувало камео для молодої Орор Монро, яке можна побачити в трейлері, але воно не увійшло до фільму. Омолоджений спеціальними візуальними ефектами Патрік Стюарт з'явився перед титрами в ролі Чарльза Ксав'є, який ще не їздить в інвалідному візку.

Ашер кедді зіграла доктора Керол Фрост. Знаменитий гравець в покер Деніел Неграну мав камео у фільмі. Один з творців Людей Ікс, Стен Лі сказав, що він буде мати камео, але в результаті не з'явився у фільмі.
Цікаві факти:
- У деяких версіях фільму, після фінальних титрів є сцена, де серед уламків фінальної битви Дедпул, що раніше вважався померлим, намагається взяти свою голову.
- Х'ю Джекман і Лів Шрайбер вже працювали разом у картині «Кейт і Лео», в якій Джекман грав аристократа (графа) XIX століття, а Шрайбер - безладного сучасного винахідника. Для зйомок фільму «Люди Ікс: Початок. Росомаха »Шрайбер набрав 18 кілограмів м'язів. На зйомках між цими акторами виникло змагання - хто зробить більш складний каскадерський трюк.
Тривалість: 01:47:24

Якість: 720p
Відео:
кодек:
розмір кадру: 1280 х 544
бітрейт: 6832 кб/с

Аудіо # 1:
мова: українська
переклад: професійний дубльований
кодек: 5.1
бітрейт: 448 кб/с

Аудіо # 2:
мова: англійська
переклад: оригінал
кодек: 5.1
бітрейт: 1510 кб/с

Джерело озвучення:


Субтитри # 1:
мова: українська
тип: програмні (м'які)
формат: *.srt

Субтитри # 2:
мова: англійська
тип: програмні (м'які)
формат: *.srt

Скріншоти:


MediaInfo
Код:
General
Unique ID                        : 241647179334838297189463998883402417223 (0xB5CB8DCA259EDF91B3EC422CFFD50447)
Complete name                    : D:\video\X-Men\X-Men Origins Wolverine (2009) [ukr,eng] 720p [Hurtom].mkv
Format                           : Matroska
Format version                   : Version 2
File size                        : 6.04 GiB
Duration                         : 1h 47mn
Overall bit rate                 : 8 048 Kbps
Movie name                       : X-Men: First Class (2011)
Encoded date                     : UTC 2012-03-19 09:25:06
Writing application              : mkvmerge v5.4.0 ('Piper') built on Mar 10 2012 13:34:39
Writing library                  : libebml v1.2.3 + libmatroska v1.3.0

Video
ID                               : 1
Format                           : AVC
Format/Info                      : Advanced Video Codec
Format profile                   : [email protected]
Format settings, CABAC           : Yes
Format settings, ReFrames        : 8 frames
Format settings, GOP             : N=1
Codec ID                         : V_MPEG4/ISO/AVC
Duration                         : 1h 47mn
Bit rate                         : 6 832 Kbps
Width                            : 1 280 pixels
Height                           : 544 pixels
Display aspect ratio             : 2.35:1
Frame rate                       : 23.976 fps
Color space                      : YUV
Chroma subsampling               : 4:2:0
Bit depth                        : 8 bits
Scan type                        : Progressive
Bits/(Pixel*Frame)               : 0.409
Stream size                      : 5.02 GiB (83%)
Writing library                  : core 72 r1232 c8edc12
Encoding settings                : cabac=1 / ref=8 / deblock=1:-1:-2 / analyse=0x3:0x113 / me=umh / subme=10 / psy=1 / psy_rd=1.0:0.0 / mixed_ref=1 / me_range=32 / chroma_me=1 / trellis=2 / 8x8dct=1 / cqm=0 / deadzone=21,11 / chroma_qp_offset=-2 / threads=12 / nr=0 / decimate=0 / mbaff=0 / bframes=3 / b_pyramid=0 / b_adapt=2 / b_bias=0 / direct=3 / wpredb=1 / keyint=250 / keyint_min=25 / scenecut=40 / rc=2pass / mbtree=0 / bitrate=6832 / ratetol=1.0 / qcomp=0.60 / qpmin=10 / qpmax=51 / qpstep=4 / cplxblur=20.0 / qblur=0.5 / ip_ratio=1.40 / pb_ratio=1.30 / aq=1:0.80
Language                         : English
Default                          : Yes
Forced                           : No

Audio #1
ID                               : 2
Format                           : AC-3
Format/Info                      : Audio Coding 3
Mode extension                   : CM (complete main)
Codec ID                         : A_AC3
Duration                         : 1h 47mn
Bit rate mode                    : Constant
Bit rate                         : 448 Kbps
Channel(s)                       : 6 channels
Channel positions                : Front: L C R, Side: L R, LFE
Sampling rate                    : 48.0 KHz
Bit depth                        : 16 bits
Compression mode                 : Lossy
Stream size                      : 344 MiB (6%)
Language                         : Ukrainian
Default                          : Yes
Forced                           : No

Audio #2
ID                               : 3
Format                           :
Format/Info                      : Digital Theater Systems
Codec ID                         : A_DTS
Duration                         : 1h 47mn
Bit rate mode                    : Constant
Bit rate                         : 755 Kbps
Channel(s)                       : 6 channels
Channel positions                : Front: L C R, Side: L R, LFE
Sampling rate                    : 48.0 KHz
Bit depth                        : 24 bits
Compression mode                 : Lossy
Stream size                      : 580 MiB (9%)
Title                            : 5.1 768 kbps
Language                         : English
Default                          : No
Forced                           : No

Text #1
ID                               : 4
Format                           : UTF-8
Codec ID                         : S_TEXT/UTF8
Codec ID/Info                    : UTF-8 Plain Text
Language                         : Ukrainian
Default                          : Yes
Forced                           : No

Text #2
ID                               : 5
Format                           : UTF-8
Codec ID                         : S_TEXT/UTF8
Codec ID/Info                    : UTF-8 Plain Text
Language                         : English
Default                          : No
Forced                           : No
Особиста оцінка: 10 - без зайвих вагань рекомендую всім!
Люди Ікс: Перший клас / X-Men: First Class (2011) 720p Ukr/Eng | Sub Ukr/Eng

Жанр: кінокомікс, бойовик, пригодницький, фантастика.
Країна: США


Кінокомпанія / кіностудія: 20th Century Fox / Marvel Entertainment, Dune Entertainment, Bad Hat Harry, Donners' Company
Режисер: Меттью Вон
Актори: Джеймс Макевой, Майкл Фассбендер, Лоуренс Белчер, Білл Мілнер, Кевін Бейкон, Дженьюарі Джонс, Роуз Бірн, Ніколас Холт, Дженніфер Лоуренс, Морган Лілі, Ребекка Ромейн, Олівер Плетт, Рей Уайз, Зої Кравіц, Калеб Лендрі Джонс, Лукас Тілл, Еді Гатегі, Джейсон Флемінг, Алекс Гонзалес, Глен Моршауер, Метт Крейвен, Раді Шербеджія, Майкл Айронсайд, Джеймс Ремар, Дон Крич, Х'ю Джекман, Бет Годдард

Сюжет:
У 1944 році, в окупованій Польщі, доктор Клаус Шмідт стає свідком того, як юний Ерік Леншерр зігнув металеві ворота, після того як нацистські солдати розлучили його з матір'ю. У своєму кабінеті Шмідт пропонує Еріку зрушити з місця металеву монету, але після декількох спроб монета не рухається. Шмідт призводить до кабінету мати Еріка і, порахувавши до трьох, вбиває її у нього на очах, пізніше пояснивши це тим, що гнів відкрив його дар. Ерік впадає в лють і вбиває двох охоронців, стиснувши на головах їх металеві каски, а так само виробляє погром у двох кімнатах за допомогою своєї здатності управляти металом, і це призводить Шмідта в захват. У той же час, в особняку в Вестчестері, Нью-Йорк, юний Чарльз Ксав'єр зустрічає дівчинку на ім'я Рейвен, яка здатна міняти свій зовнішній вигляд. Зрадівши, що він зустрів когось ще, не такого, як усі, Чарльз демонструє Рейвен свої здібності телепата і запрошує її жити в їхньому особняку.

Через майже 20 років, в 1962 році, вже дорослий Ерік Леншерр починає вистежувати колишніх нацистських офіцерів, намагаючись дізнатися у них, де знаходиться Шмідт. У той же час, в Англії, Чарльз Ксав'єр (Джеймс Макевой) закінчує Оксфордський університет, захищає дисертацію на тему мутацій людини, а його прийомна сестра Рейвен живе разом з ним і працює офіціанткою. В Лас-Вегасі, штат Невада, агент ЦРУ Мойра Мактаггерт здійснює стеження за «Клубом пекельного полум'я». Мойра проникає всередину слідом за полковником Хендрі, де бачить Себастьяна Шоу (він же доктор Шмідт), Емму Фрост, Азазеля та Ріптайда під час демонстрації їх здібностей. Шоу погрожує Хендрі, змушуючи розмістити ракети «Юпітер» в Туреччині, після чого Азазель переміщує його в генштаб США з питань війни з СРСР, де він пропонує розмістити ракети. Мойра повідомляє по телефону, що Хендрі був в «Клубі пекельного полум'я», проте її колега не вірить їй, стверджуючи, що так швидко потрапити в штаб з Лас-Вегаса неможливо. Мойра та її напарник вирішують знайти фахівця з генетичним мутаціям.
Відмінності від попередніх фільмів:
В одному з інтерв'ю, Меттью Вон повідомив, що фільм дає початок нової трилогії про Людей Ікс, бо в фільмі присутні кілька розбіжностей з попередніми частинами франшизи. Згідно цього фільму, Чарльз Ксав'єр втрачає можливість ходити в 1962 році, хоча у флешбеках фільму «Люди Ікс: Остання битва» показано, як він ходить за двадцять років до подій фільму - приблизно в 1980-х роках. У фільмі «Люди Ікс: Початок. Росомаха », дія якого відбувається в 1979 році, Ксав'єр веде молодих Мутанна з острова Три Майл Айленд, також без інвалідного крісла.

Крім цього, в «Люди Ікс: Перший Клас» Емма Фрост показана вже дорослою в 1962 році, в той час як в «Люди Ікс: Початок. Росомаха »вона була ще підлітком. Звір показаний у своєму звичайному вигляді під час короткого появи у фільмі «Люди Ікс 2», а фільм «Люди Ікс: Остання битва», він вже ставши дорослим, покритий синьою шерстю, в той час як в «Люди Ікс: Перший Клас» Хенк Маккой покрився шерстю приблизно на 20 років раніше, у підлітковому віці.
Видалені сцени:
У серпні 2011 року була опублікована сцена в стриптиз-барі, якої не було у театральній версії фільму. У цьому уривку Ейнджел хоче, щоб Магнето і Чарльз продемонстрували свої мутантскіе здібності. Магнето змушує левітувати відерце з шампанським, а Чарльз змушує Ейнджел на мить повірити, що Магнето лежить на ліжку в жіночому одязі.
Цікаві факти:
- В одній зі сцен молода Містік приймає вигляд актриси Ребекки Ромейн. Ребекка Ромейн грала Містик у попередніх фільмах про Людей Ікс.
- У фільмі змінена причина, по якій Професор Ікс позбавляється можливості ходити. В оригіналі прибулець на ім'я Люцифер обрушує на Чарльза скелю, в той час як у фільмі в цьому винен Магнето - невдало відбиває кулю Мойри МакТаггерт.
- Коли Чарльз Ксав'єр використовує Церебро, можна помітити юну Шторм (Орор Монро) і Циклопа (Скотта Саммерса).
- В одній зі сцен, коли Чарльз і Ерік набирають команду мутантів, знайдених за допомогою Церебро, в камео з'являється Росомаха, зіграний Х'ю Джекманом, зустрівши їх у японському барі єдиною фразою - «Та пішли ви».
- Дженьюарі Джонс вже вдруге грає у фільмі, де дія відбувається в 1962 році, з актором, що носить «свиняче» прізвище. Першим був телесеріал «Божевільні» і актор Джон Хемм (англ. ham - шинка). А в цьому фільмі актриса грає з Кевін Бейкон (англ. bacon - бекон).
- Рейтинг MPAA - PG-13 (дітям до 13 років перегляд не бажаний).
- У сцені розмови Ксавьера з керівниками ЦРУ, Чарльз читає думки одного з агентів і каже, що він думає про свого сина Вільяма і називає прізвище агента - Страйкер. Таким чином стає ясно, що мова йде про Вільяма Страйкер, головного антагоніста фільму «Люди Ікс 2».
- Незважаючи на те, що будь-яка російська мова в американських фільмах переозвучували, в цьому фільмі можна почути непереозвученние фрагменти. Наприклад, радянський радист, що передає наказ «Аральського моря» повернути назад, залишився з американської версії фільму. Як і радянський генерал, «бавитися» з Еммою Фрост на ліжку.
Тривалість: 02:11:42

Якість: 720p
Відео:
кодек:
розмір кадру: 1280 х 544
бітрейт: 5592 кб/с

Аудіо # 1:
мова: українська
переклад: професійний дубльований
кодек: 5.1
бітрейт: 448 кб/с

Аудіо # 2:
мова: англійська
переклад: оригінал
кодек: 5.1
бітрейт: 1510 кб/с

Переклад і озвучення виконано:
студією Postmodern на замовлення компанії Геміні

Субтитри # 1:
мова: українська
тип: програмні (м'які)
формат: *.srt

Субтитри # 2:
мова: англійська
тип: програмні (м'які)
формат: *.srt

Скріншоти:


MediaInfo
Код:
General
Unique ID                        : 175623410947431939621375945927462116932 (0x841FD6AF0204DBB6820BEF39AE965E44)
Complete name                    : D:\video\X-Men\X-Men First Class (2011)  [ukr, eng] 720p [Hurtom].mkv
Format                           : Matroska
Format version                   : Version 2
File size                        : 6.95 GiB
Duration                         : 2h 11mn
Overall bit rate                 : 7 552 Kbps
Movie name                       : X-Men: First Class (2011) - Release for HDClub by doclogan
Encoded date                     : UTC 2012-03-19 08:52:28
Writing application              : mkvmerge v5.4.0 ('Piper') built on Mar 10 2012 13:34:39
Writing library                  : libebml v1.2.3 + libmatroska v1.3.0
Attachment                       : Yes / Yes / Yes

Video
ID                               : 1
Format                           : AVC
Format/Info                      : Advanced Video Codec
Format profile                   : [email protected]
Format settings, CABAC           : Yes
Format settings, ReFrames        : 12 frames
Codec ID                         : V_MPEG4/ISO/AVC
Duration                         : 2h 11mn
Bit rate                         : 5 592 Kbps
Width                            : 1 280 pixels
Height                           : 544 pixels
Display aspect ratio             : 2.35:1
Frame rate                       : 23.976 fps
Color space                      : YUV
Chroma subsampling               : 4:2:0
Bit depth                        : 8 bits
Scan type                        : Progressive
Bits/(Pixel*Frame)               : 0.335
Stream size                      : 5.01 GiB (72%)
Writing library                  : core 116 r2057 0ba8a9c
Encoding settings                : cabac=1 / ref=12 / deblock=1:-3:-3 / analyse=0x3:0x113 / me=umh / subme=10 / psy=1 / psy_rd=1.05:0.10 / mixed_ref=1 / me_range=48 / chroma_me=1 / trellis=2 / 8x8dct=1 / cqm=1 / deadzone=21,11 / fast_pskip=0 / chroma_qp_offset=-2 / threads=12 / sliced_threads=0 / nr=0 / decimate=1 / interlaced=0 / bluray_compat=0 / constrained_intra=0 / bframes=6 / b_pyramid=2 / b_adapt=2 / b_bias=0 / direct=3 / weightb=1 / open_gop=0 / weightp=2 / keyint=250 / keyint_min=23 / scenecut=40 / intra_refresh=0 / rc_lookahead=40 / rc=2pass / mbtree=1 / bitrate=5592 / ratetol=1.0 / qcomp=0.70 / qpmin=3 / qpmax=69 / qpstep=4 / cplxblur=20.0 / qblur=0.5 / vbv_maxrate=40000 / vbv_bufsize=30000 / nal_hrd=none / ip_ratio=1.40 / aq=2:1.00
Language                         : English
Default                          : Yes
Forced                           : No

Audio #1
ID                               : 2
Format                           : AC-3
Format/Info                      : Audio Coding 3
Mode extension                   : CM (complete main)
Codec ID                         : A_AC3
Duration                         : 2h 11mn
Bit rate mode                    : Constant
Bit rate                         : 448 Kbps
Channel(s)                       : 6 channels
Channel positions                : Front: L C R, Side: L R, LFE
Sampling rate                    : 48.0 KHz
Bit depth                        : 16 bits
Compression mode                 : Lossy
Stream size                      : 422 MiB (6%)
Default                          : Yes
Forced                           : No

Audio #2
ID                               : 3
Format                           :
Format/Info                      : Digital Theater Systems
Codec ID                         : A_DTS
Duration                         : 2h 11mn
Bit rate mode                    : Constant
Bit rate                         : 1 510 Kbps
Channel(s)                       : 6 channels
Channel positions                : Front: L C R, Side: L R, LFE
Sampling rate                    : 48.0 KHz
Bit depth                        : 24 bits
Compression mode                 : Lossy
Stream size                      : 1.39 GiB (20%)
Title                            : 5.1 @ 1.5 Mbps
Language                         : English
Default                          : No
Forced                           : No

Text #1
ID                               : 4
Format                           : UTF-8
Codec ID                         : S_TEXT/UTF8
Codec ID/Info                    : UTF-8 Plain Text
Language                         : Ukrainian
Default                          : No
Forced                           : No

Text #2
ID                               : 5
Format                           : UTF-8
Codec ID                         : S_TEXT/UTF8
Codec ID/Info                    : UTF-8 Plain Text
Language                         : English
Default                          : No
Forced                           : No

Menu
00:00:00.000                     : en:00:00:00.000
00:04:21.552                     : en:00:04:21.552
00:09:33.155                     : en:00:09:33.155
00:14:03.425                     : en:00:14:03.425
00:16:08.175                     : en:00:16:08.175
00:22:10.829                     : en:00:22:10.829
00:27:11.046                     : en:00:27:11.046
00:28:46.349                     : en:00:28:46.349
00:31:32.891                     : en:00:31:32.891
00:36:07.540                     : en:00:36:07.540
00:40:12.660                     : en:00:40:12.660
00:44:16.487                     : en:00:44:16.487
00:50:05.752                     : en:00:50:05.752
00:54:00.862                     : en:00:54:00.862
01:01:07.413                     : en:01:01:07.413
01:08:17.927                     : en:01:08:17.927
01:11:51.098                     : en:01:11:51.098
01:14:06.525                     : en:01:14:06.525
01:20:07.052                     : en:01:20:07.052
01:23:43.226                     : en:01:23:43.226
01:27:35.833                     : en:01:27:35.833
01:28:51.242                     : en:01:28:51.242
01:31:24.979                     : en:01:31:24.979
01:33:33.899                     : en:01:33:33.899
01:37:54.410                     : en:01:37:54.410
01:39:55.197                     : en:01:39:55.197
01:43:37.961                     : en:01:43:37.961
01:47:44.166                     : en:01:47:44.166
01:52:38.460                     : en:01:52:38.460
01:56:44.622                     : en:01:56:44.622
02:01:26.696                     : en:02:01:26.696
02:04:24.248                     : en:02:04:24.248

Особиста оцінка: 10 - без зайвих вагань рекомендую всім!
Джерело: & &

Особиста оцінка: 10 - без зайвих вагань рекомендую всім!


За наданий код оформлення подяка Dark Invader 2
За звукові доріжки до перших двох частин подяка _oles
За надану доріжку до четвертої частини подяка вінськийігор
За надану доріжку до п’ятої частини подяка leroykendall



Бронзовий реліз (на рейтинг впливає 75% завантаженого)
 Трекер:    Зареєстрований   

Завантажити / скачати фільм українською



відео для новачків



 Зареєстрований:   2012-03-19 13:02
 Розмір:   31.24 GB 
 Оцінка фільму:   9.5/10 (Голосів: 42)
   
pyatachok 
Координатор літератури


З нами з: 30.01.10
Востаннє: 04.12.16
Повідомлень: 1337

2012-03-18 02:26  
Швидкість віддачі не дуже висока, тому прохання комусь з більш потужнім каналом завантажити і роздавати на постійній основі.
sergej_kriv 
Новенький


З нами з: 13.02.12
Востаннє: 05.12.16
Повідомлень: 10

2012-03-19 15:11  
Я правильно зрозумів, Люди Ікс: Остання битва без української доріжки?
pyatachok 
Координатор літератури


З нами з: 30.01.10
Востаннє: 04.12.16
Повідомлень: 1337

2012-03-19 15:12  
sergej_kriv
Так, тільки субтитри.

insatiate 
Новенький


З нами з: 22.07.09
Востаннє: 05.12.16
Повідомлень: 21

2012-03-19 22:22  
Ну, що так туго, роздавайте буль ласка, дуже хочу подивитись!!!
leroykendall 
Модератор HD


З нами з: 03.01.11
Востаннє: 20.11.16
Повідомлень: 749

2012-03-25 14:32  
Субтитри було б краще до контейнеру додати, а не окремо.
pyatachok 
Координатор літератури


З нами з: 30.01.10
Востаннє: 04.12.16
Повідомлень: 1337

2012-03-25 15:03  
leroykendall
Та я хотів додати, але з тими субтитрами виникала помилка при додаванні в контейнер.
А окремим файлом все добре.

hattabych74 
Новенький


З нами з: 26.04.12
Востаннє: 05.12.16
Повідомлень: 5

2013-08-11 16:51  
Дуже дякую, ала не погано було, щоб до всіх фільмів була українська дорожка.
olyx 
Відео Гуртом - підтримка та поширення
Відео Гуртом - підтримка та поширення


З нами з: 25.01.10
Востаннє: 05.10.16
Повідомлень: 231

2013-08-11 18:38  
Ну не зовсім повне, а останній фільм?
[Captain] 
Попереджень: 1
Попереджень: 1 


З нами з: 18.02.12
Востаннє: 05.12.16
Повідомлень: 1379

2014-05-11 14:58  
X-Men Origins: Wolverine в Україні називається Люди-Х: Росомаха
dexter90 
Новенький


З нами з: 05.01.12
Востаннє: 26.07.15
Повідомлень: 16

2014-07-28 22:32  
Як я розумію, так і ніхто не переклав Люди Ікс: Остання битва на українську?
dexter90 
Новенький


З нами з: 05.01.12
Востаннє: 26.07.15
Повідомлень: 16

2014-08-05 07:07  
Дайте, будь ласка, відповідь! Планую скачувати усі частини, но виходить, що немає толку скачувати дану частину. Чи можливо є уже переклад і просто перезалити дану частину!
NeetScrool 
Відео Гуртом - фільмокрай
Відео Гуртом - фільмокрай


З нами з: 10.01.13
Востаннє: 05.12.16
Повідомлень: 2214

2014-08-05 10:15  
dexter90 написано:
Дайте, будь ласка, відповідь! Планую скачувати усі частини, но виходить, що немає толку скачувати дану частину. Чи можливо є уже переклад і просто перезалити дану частину!

Української озвучки до даного фільму не існує.

Kapi 
Новенький


З нами з: 18.05.13
Востаннє: 25.10.16
Повідомлень: 3

2015-08-22 18:05  
Додайте швидкості будь ласка, до вечора потрібно аби фільм був на ПК.
Mr Yuran 
Відео Гуртом - команда HD
Відео Гуртом - команда HD


З нами з: 15.11.11
Востаннє: 05.12.16
Повідомлень: 377

2015-08-22 19:01  
Kapi у вас малий рейтинг
Рейтинг: 0.07
Раджу почитати:
Навіщо потрібен рейтинг на торрент-трекері? (пояснення для новачків)
Розширені ЧаПи (FAQ)
Також в цій темі ви можете допомогти толоці та підняти свій рейтинг - Контент для придбання

Kapi 
Новенький


З нами з: 18.05.13
Востаннє: 25.10.16
Повідомлень: 3

2015-08-22 19:14  
у мене ідсл канал, з віддачею у 100 кілобіт на секунду, мені важко з рейтингом, але буду старатися, вже став на золоту роздачу, буду піднімати рейтинг. Як часто оновлюється статистика на форумі щодо відданого\завантаженого?
Mr Yuran 
Відео Гуртом - команда HD
Відео Гуртом - команда HD


З нами з: 15.11.11
Востаннє: 05.12.16
Повідомлень: 377

2015-08-22 19:40  
Kapi
Ще цю тему почитайте - Бонуси
Там все чітко. Залишайтесь на роздачі. Не зупиняйте роздачу, не закривайте клієнт, не видаляйте завантажене...
Про завантажене/віддане точно не скажу. Раз в годину повинно.

tribus 
VIP


З нами з: 22.10.14
Востаннє: 05.12.16
Повідомлень: 555

2015-08-22 21:52  
Kapi написано:
Як часто оновлюється статистика на форумі щодо відданого\завантаженого?

Mr Yuran написано:
Про завантажене/віддане точно не скажу. Раз в годину повинно.

Ця інформація не стосується даного релізу

Давніше читав що, статистика оновлюється раз в пів години, але це не точна інформація. Можна оновити вручну, натиснути правою кнопкою хвостатої на вкладку Торренти (в лівому віконці µTorrent) і вибрати опцію Оновити трекер, і десь до п'яти хвилин, а то і менше, статистика оновиться на сайті. У всякому разі, мало б оновитись. Отакі ось справи.

Wensun 
Частий відвідувач


З нами з: 20.01.09
Востаннє: 05.12.16
Повідомлень: 47

2016-06-22 22:04  
Зробіть нормальний реліз !! сів дивитись 3 фільм.... добрий день ! без перекладу !! а переклад то є !!!
tribus 
VIP


З нами з: 22.10.14
Востаннє: 05.12.16
Повідомлень: 555

2016-06-23 00:15  
Ваш часовий пояс: GMT + 2 Години

Нова тема   Відповісти