Завантажити та скачати торренти українською


V.A. - Голоси Минулого. Живі перекази Полтавщини (2006) [FLAC] | Folk

Нові коментарі

Нова тема   Відповісти
Останній раз роздавалося boberчег (2016-11-22)
Автор Повідомлення
gosha.samovar 
VIP


З нами з: 08.09.10
Востаннє: 03.12.16
Повідомлень: 400

2012-03-17 17:15  
V.A. - Голоси Минулого. Живі перекази Полтавщини (2006) [FLAC] | Folk



Стиль: Folk
Країна, місто: Україна, Полтавщина
Видавець: Мельничук В.В., СПД
Виконавці
    Село Хитці Лубенського району (№№ 1, 2, 4, 6):
      Ліда Шкура 1940 р.н.;
      Надія Тимошенко 1932 р.н.;
      Олександра Олійник 1935 р.н.;
      Наталя Пугач 1938 р.н.;
      Ганна Олійник 1929 р.н.;
      Явдоха Бідник 1925 р.н.;
      Мотря Залізька 1923 р.н.;
      Федора Яценко 1919 р.н.;
      Олександра Олійник 1934 р.н.;
      Катерина Дехтяр 1923 р.н.


    Село Веприк Гадяцького району (№№ 5, 7, 9):
      Ганна Тяла 1925 р.н.;
      Анастасія Клименко 1928 р.н.;
      Надія Прудиус 1926 р.н.;
      Ганна Карпенко 1945 р.н.;
      Марія Карпенко 1929 р.н.;
      Орина Удовиченко 1931 р.н.;
      Ганна Тернова 1936 р.н.;
      Михайло Лисокобилко 1923 р.н. (соло №9);
      Олександр Котляр 1927 р.н.


    Село Хорошки Оржицького району (№№ 3, 11, 15):
      Марія Харченко 1924 р.н.;
      Марія Шелимовець 1940 р.н.;
      Марія Гарбуз 1940 р.н.;
      Катерина Харченко 1926 р.н.


    Село Бобрівник Зіньківського району (№ 8):
      Варвара Попенко 1918 р.н.;
      Євдокія Кремпоха 1937 р.н.;
      Єфросінія Косяк 1924 р.н.;
      Марія Коцегуб 1923 р.н.;
      Катерина Каліниченко 1924 р.н.;
      Євдокія Каліниченко 1914 р.н.

    Село Гаркушенці Миргородського району (№№ 10, 12):
      Марія Ксьонз 1921 р.н.;
      Олександра Котенко 1944 р.н.;
      Євдокія Вовк 1950 р.н.;
      Надія Афанас'єва 1947 р.н.;
      Євдокія Сидоренко 1927 р.н.;
      Катерина Козленко 1935 р.н.;
      Марія Горбань 1945 р.н.;
      Олександра Манько 1930 р.н.


    Село Вовча долина Лубенського району (№ 13):
      Марія Харапудько 1925 р.н.;
      Марія Сіденко 1935 р.н.;
      Анастасія Шинкарук 1932 р.н.;
      Ганна Яременко 1937 р.н.;
      Ганна Сушко 1919 р.н.;
      Надія Бакало 1935.р.н.;
      Марія Кульчій 1940 р.н.;
      Марія Терець 1931 р.н.;
      Марія Гузьома 1931 р.н.


    Село Єрки Миргородського району (№ 14):
      Олександра Правосуд 1927 р.н.;
      Ольга Ярошенко 1929 р.н.;
      Уляна Юрченко 1935 р.н.;
      Меланія Коваленко 1927 р.н.;
      Ганна Баришполець 1946 р.н.;
      Ганна Ступка 1943 р.н.;
      Галина Байдіна 1950 р.н.


    Місто Миргород (№№ 11, 16):
      Іван Вовк 1927 р.н. (гармошка);
      Олексій Панасенко 1917 р.н. (бубон)
Пісні:
    01. Весняночка-паняночка (веснянка)
    02. Ой ходив Донець (балада)
    03. Із-за гори вітер віє (приурочена до весни)
    04. Вилітала галка (лірична)
    05. Ой похмарилося, затуманилося (лірична)
    06. Ой журавко-журавко (строкова)
    07. З-під каменя а вода тече (лірична)
    08. Котилася та ясная зоря (лірична)
    09. Ой шо я того недоростка (лірична)
    10. Недалеко милий оре (лірична)
    11. Та заскрипіли воріточки тисовії (весільна); Полька (танець)
    12. Кому воля, нам неволя (лірична)
    13. Ой із-за гори з-за крутої (весільна)
    14. Пущу коня ой на яр на долину (козацька)
    15. Світи, мати, свічку (весільна)
    16. Полька 23
EAC log
Exact Audio Copy V1.0 beta 3 from 29. August 2011

Отчёт EAC об извлечении, выполненном 17. марта 2012, 11:55

Різні виконавці / Голоси Минулого. Живі перекази Полтавщини

Дисковод: PHILIPS SPD2519T Adapter: 2 ID: 0

Режим чтения : Достоверность
Использование точного потока : Да
Отключение кэша аудио : Да
Использование указателей C2 : Нет

Коррекция смещения при чтении : 6
Способность читать области Lead-in и Lead-out : Нет
Заполнение пропущенных сэмплов тишиной : Да
Удаление блоков с тишиной в начале и конце : Нет
При вычислениях CRC использовались нулевые сэмплы : Да
Интерфейс : Встроенный Win32-интерфейс для Win NT/2000

Выходной формат : Пользовательский кодировщик
Выбранный битрейт : 1024 kBit/s
Качество : Высокий
Добавление ID3-тега : Нет
Утилита сжатия : D:\soft_2\EAC\Exact Audio Copy\Flac\flac.exe
Дополнительные параметры : -V -8 -T "Date=%year%" -T "Genre=%genre%" %source%

TOC извлечённого CD

Трек | Старт | Длительность | Начальный сектор | Конечный сектор
---------------------------------------------------------------------
1 | 0:00.00 | 0:49.44 | 0 | 3718
2 | 0:49.44 | 4:00.00 | 3719 | 21718
3 | 4:49.44 | 2:11.71 | 21719 | 31614
4 | 7:01.40 | 3:15.17 | 31615 | 46256
5 | 10:16.57 | 3:20.35 | 46257 | 61291
6 | 13:37.17 | 4:41.30 | 61292 | 82396
7 | 18:18.47 | 6:28.19 | 82397 | 111515
8 | 24:46.66 | 3:11.65 | 111516 | 125905
9 | 27:58.56 | 3:38.36 | 125906 | 142291
10 | 31:37.17 | 2:16.36 | 142292 | 152527
11 | 33:53.53 | 3:26.74 | 152528 | 168051
12 | 37:20.52 | 6:53.63 | 168052 | 199089
13 | 44:14.40 | 1:59.40 | 199090 | 208054
14 | 46:14.05 | 4:34.20 | 208055 | 228624
15 | 50:48.25 | 0:27.32 | 228625 | 230681
16 | 51:15.57 | 1:15.11 | 230682 | 236317

Характеристики диапазона извлечения и сообщения об ошибках

Выбранный диапазон

Имя файла E:\Музіка!\from EAC\Різні виконавці - Голоси Минулого. Живі перекази Полтавщини.wav

Пиковый уровень 93.1 %
Скорость извлечения 7.2 X
Качество диапазона 100.0 %
CRC теста 378AA4F0
CRC копии 378AA4F0
Копирование... OK

Ошибок не произошло

AccurateRip: сводка

Трек 1 : извлечено точно (доверие 1) [3BDE6EFD] (AR v1)
Трек 2 : извлечено точно (доверие 1) [BCFAFED4] (AR v1)
Трек 3 : извлечено точно (доверие 1) [071245E2] (AR v1)
Трек 4 : извлечено точно (доверие 1) [E9AD6D1B] (AR v1)
Трек 5 : извлечено точно (доверие 1) [2AE3B9BD] (AR v1)
Трек 6 : извлечено точно (доверие 1) [446059D2] (AR v1)
Трек 7 : извлечено точно (доверие 1) [F3B9285B] (AR v1)
Трек 8 : извлечено точно (доверие 1) [6E9CE773] (AR v1)
Трек 9 : извлечено точно (доверие 1) [392020E8] (AR v1)
Трек 10 : извлечено точно (доверие 1) [44471B5F] (AR v1)
Трек 11 : извлечено точно (доверие 1) [23813E2D] (AR v1)
Трек 12 : извлечено точно (доверие 1) [31C48549] (AR v1)
Трек 13 : извлечено точно (доверие 1) [38CADDA8] (AR v1)
Трек 14 : извлечено точно (доверие 1) [ECB3EF7C] (AR v1)
Трек 15 : извлечено точно (доверие 1) [E324AAB2] (AR v1)
Трек 16 : извлечено точно (доверие 1) [03111AFA] (AR v1)

Все треки извлечены точно

Конец отчёта

==== Контрольная сумма отчёта DFA208B49BDD4A5C2F2CA72AEE8FFBB6744BA2307774E781F0B970E51CA3F71D ====
Спектр альбому
Тривалість: 00:52:30
Мова: українська (окрім 11/2 та 16 - відсутня)
Аудіо-кодек: FLAC
Бітрейт: 600 кб/с
Джерело: власний ріп власного CD
Додаткова інформація
Пропонований альбом запрошує слухачів у світ традиційної полтавської музики різних епох і стилів, представленою наспівами календарної та родинної звичаєвості, піснями з козацького та родинного побуту, ліричними оповіданнями про кохання та сирітську недолю, інструментальними мелодіями до танців.
Музичний матеріал альбому було записано під час фольклорних експедицій наприкінці 90-х років ХХ століття.

Тетяна Сопілка
Якщо Ви справді бажаєте підтримати українське - після прослуховування, якщо музика вам сподобалась, придбайте ліцензійний диск. Підтримаймо вітчизняних виконавців!


Срібний реліз (на рейтинг впливає 50% завантаженого)
 Трекер:    Зареєстрований   

Завантажити / скачати українську музику



відео для новачків



 Зареєстрований:   2012-03-17 17:15
 Розмір:   366 MB 
 Оцінка музики:   10/10 (Голосів: 4)
   
Ваш часовий пояс: GMT + 2 Години

Нова тема   Відповісти