Завантажити та скачати торренти українською


Таємне вікно / Secret Window (2004) 1080p Ukr/Eng | Sub Eng

Нові коментарі

Нова тема   Відповісти
Автор Повідомлення
ratbol 
Модератор HD


З нами з: 03.02.09
Востаннє: 01.12.16
Повідомлень: 1088

2012-03-16 22:05  
Таємне вікно / Secret Window (2004) 1080p Ukr/Eng | Sub Eng

Таємне вікно / Secret Window (2004) 1080p Ukr/Eng | Sub Eng


Жанр: містика, триллер
Країна: США



Кіностудія / кінокомпанія: Columbia Pictures Corporation, Grand Slam Productions, Pariah Entertainment Group
Режисер: Девід Кепп (David Koepp)
Актори: Джонні Депп (Johnny Depp), Джон Туртурро (John Turturro), Марія Белло (Maria Bello), Тімоті Хаттон (Timothy Hutton), Чарльз С. Даттон (Charles S. Dutton) та інші

Сюжет:
Фільм є екранізацією романа найвідомішого автора триллерів - Стівена Кінга. Цього разу картина оповідає про талановитого і успішного письменника Морте Рейні, який переживає не самі кращі часи в своєму житті. Після того, як він застав свою дружину в ліжку з іншим чоловіком і пережив втомливі формальності розлучення, Морт вирішує віддалитися від справ, переїхати за місто і в тиші сільського життя боротися з творчою кризою, що осягнула його.
І все було добре до тих пір, поки одного дня вночі в його будинок не увірвався незнайомець, що звинуватив Морта в плагіаті. Джон Шутер був дуже схожий на психопата, а його пістолет - на справжній, аби Морту прийшла в голову ідея з ним сперечатися. І коли письменник спробував переконати співбесідника в своїй правоті, показавши йому рукописи книги, він зіткнувся з невеликою проблемою - рукопис безслідно зник.


Тривалість: 01:35:55
Якість: 1080p [CHD]
Відео:
кодек:
розмір кадру: 1920 х 800
бітрейт: 10.3 Мбіт/с

Аудіо # 1:
мова: українська
переклад: багатоголосий закадровий
кодек: 5.1
бітрейт: 448 Кбіт/с

Аудіо # 2:
мова: англійська
переклад: оригінал
кодек: 5.1
бітрейт: 1510 Кбіт/с

Аудіо # 3:
мова: англійська
переклад: коментарі
кодек: 2.0
бітрейт: 192 Кбіт/с

Джерело озвучення:


Субтитри:
мова: англійська
тип: програмні (м'які)
формат: *.srt

MediaInfo
Код:
General
Unique ID                        : 183006002112759739975566265194668311995 (0x89ADAC87CD01474F91BEA14C459B45BB)
Complete name                    : E:\ТАємне вікно\Таємне вікно [Secret Window] (2004) 1080p [Hurtom].mkv
Format                           : Matroska
Format version                   : Version 2
File size                        : 8.36 GiB
Duration                         : 1h 35mn
Overall bit rate                 : 12.5 Mbps
Movie name                       : Secret Window (2004)
Encoded date                     : UTC 2012-03-15 21:39:39
Writing application              : mkvmerge v3.2.0 ('Beginnings') built on Feb 12 2010 16:46:17
Writing library                  : libebml v0.7.9 + libmatroska v0.8.1

Video
ID                               : 1
Format                           : AVC
Format/Info                      : Advanced Video Codec
Format profile                   : [email protected]
Format settings, CABAC           : Yes
Format settings, ReFrames        : 5 frames
Codec ID                         : V_MPEG4/ISO/AVC
Duration                         : 1h 35mn
Bit rate                         : 10.3 Mbps
Width                            : 1 920 pixels
Height                           : 800 pixels
Display aspect ratio             : 2.40:1
Frame rate                       : 23.976 fps
Color space                      : YUV
Chroma subsampling               : 4:2:0
Bit depth                        : 8 bits
Scan type                        : Progressive
Bits/(Pixel*Frame)               : 0.280
Stream size                      : 6.75 GiB (81%)
Title                            : CHD
Writing library                  : core 104 r1703 cd21d05
Encoding settings                : cabac=1 / ref=5 / deblock=1:-3:-3 / analyse=0x3:0x113 / me=umh / subme=10 / psy=1 / psy_rd=1.05:0.10 / mixed_ref=1 / me_range=32 / chroma_me=1 / trellis=2 / 8x8dct=1 / cqm=0 / deadzone=21,11 / fast_pskip=0 / chroma_qp_offset=-2 / threads=12 / sliced_threads=0 / nr=0 / decimate=1 / interlaced=0 / constrained_intra=0 / bframes=5 / b_pyramid=2 / b_adapt=2 / b_bias=0 / direct=3 / weightb=1 / open_gop=0 / weightp=2 / keyint=250 / keyint_min=23 / scenecut=40 / intra_refresh=0 / rc_lookahead=60 / rc=2pass / mbtree=1 / bitrate=10325 / ratetol=2.0 / qcomp=0.70 / qpmin=10 / qpmax=51 / qpstep=4 / cplxblur=20.0 / qblur=0.5 / vbv_maxrate=50000 / vbv_bufsize=50000 / ip_ratio=1.40 / aq=1:1.00 / nal_hrd=none
Language                         : English
Default                          : Yes
Forced                           : No

Audio #1
ID                               : 2
Format                           : AC-3
Format/Info                      : Audio Coding 3
Mode extension                   : CM (complete main)
Codec ID                         : A_AC3
Duration                         : 1h 35mn
Bit rate mode                    : Constant
Bit rate                         : 448 Kbps
Channel(s)                       : 6 channels
Channel positions                : Front: L C R, Side: L R, LFE
Sampling rate                    : 48.0 KHz
Bit depth                        : 16 bits
Compression mode                 : Lossy
Stream size                      : 307 MiB (4%)
Title                            : 5.1 [448 Kbps] - багатоголосий закадровий, Інтер
Language                         : Ukrainian
Default                          : Yes
Forced                           : No

Audio #2
ID                               : 3
Format                           :
Format/Info                      : Digital Theater Systems
Codec ID                         : A_DTS
Duration                         : 1h 35mn
Bit rate mode                    : Constant
Bit rate                         : 1 510 Kbps
Channel(s)                       : 6 channels
Channel positions                : Front: L C R, Side: L R, LFE
Sampling rate                    : 48.0 KHz
Bit depth                        : 24 bits
Compression mode                 : Lossy
Delay relative to video          : 11ms
Stream size                      : 1.01 GiB (12%)
Title                            : 5.1 [1 510]
Language                         : English
Default                          : No
Forced                           : No

Audio #3
ID                               : 4
Format                           : AC-3
Format/Info                      : Audio Coding 3
Format profile                   : Dolby Digital
Mode extension                   : CM (complete main)
Codec ID                         : A_AC3
Duration                         : 1h 35mn
Bit rate mode                    : Constant
Bit rate                         : 192 Kbps
Channel(s)                       : 2 channels
Channel positions                : Front: L R
Sampling rate                    : 48.0 KHz
Bit depth                        : 16 bits
Compression mode                 : Lossy
Stream size                      : 132 MiB (2%)
Title                            : 2.0 [192 Kbps] - коментарі режисера
Language                         : English
Default                          : No
Forced                           : No

Text
ID                               : 5
Format                           : UTF-8
Codec ID                         : S_TEXT/UTF8
Codec ID/Info                    : UTF-8 Plain Text
Language                         : English
Default                          : No
Forced                           : No
Скріншоти






Подяка Romario_O за українську доріжку



Джерело: &
Особиста оцінка: 10 - один з найулюбленіших!


Срібний реліз (на рейтинг впливає 50% завантаженого)
 Трекер:    Зареєстрований   

Завантажити / скачати фільм українською



відео для новачків



 Зареєстрований:   2012-03-16 22:05
 Розмір:   8.36 GB 
 Оцінка фільму:   9.9/10 (Голосів: 10)
   
Інші релізи
   Таємне вікно / Secret Window (2004) 720p Ukr/Eng | Sub Eng DеLight  4 / 0   4.21 GB   2011-10-27 21:47 
   Таємне вікно / Secret Window (2004) Ukr/Eng | Sub Eng Romario_O  11 / 4   1.76 GB   2009-11-28 18:08 
Andriy063 
Відео Гуртом - підтримка та поширення
Відео Гуртом - підтримка та поширення


З нами з: 26.09.10
Востаннє: 03.12.16
Повідомлень: 371

2012-03-16 22:31  
Непередбачуваний хоррор-трилер. все у стилі Кінга Wide grin
leroykendall 
Модератор HD


З нами з: 03.01.11
Востаннє: 20.11.16
Повідомлень: 749

2012-03-16 23:39  
Вкажіть що ще є третя доріжка з коментарями.

Додано через 4 хвилини 28 секунд:

ratbol написано:

У нас прийнято писати , але не обов'язково Happy

ratbol 
Модератор HD


З нами з: 03.02.09
Востаннє: 01.12.16
Повідомлень: 1088

2012-03-17 00:05  
leroykendall написано:
Вкажіть що ще є третя доріжка з коментарями.


Ой, забув Happy

leroykendall написано:
У нас прийнято писати , але не обов'язково Happy


Ну якщо не обовязково то залишу , його пишу якщо відео було кодоване, в ремуксах, наприклад, пишу

trishe 
Новенький


З нами з: 20.01.11
Востаннє: 03.12.16
Повідомлень: 5

2012-03-17 23:41  
фільм просто неймовірний, кожному хто хоча б трішки любить триллер раджу подивитись..!
braveboy 
Відео Гуртом - команда HD
Відео Гуртом - команда HD


З нами з: 15.06.10
Востаннє: 29.10.16
Повідомлень: 958

2012-03-18 07:57  
ratbol
leroykendall

Цитата:
- це кодек
- це безплатна бібліотека програмних компонентів для кодування

Ваш часовий пояс: GMT + 2 Години

Нова тема   Відповісти