Завантажити та скачати торренти українською


Диво / Miracle (2004) 720p Ukr/Eng | Sub Ukr/Eng

Нові коментарі

Нова тема   Відповісти
Автор Повідомлення
Віктор 
Відео Гуртом - субтитрування
Відео Гуртом - субтитрування


З нами з: 09.01.10
Востаннє: 02.12.16
Повідомлень: 8661

2012-03-15 23:32  
Диво / Miracle (2004) 720p Ukr/Eng | Sub Ukr/Eng


Диво / Miracle (2004) 720p Ukr/Eng | Sub Ukr/Eng

«The story of the greatest moment in sports history.»


Жанр: драма, родинний, історичний
Країна: США



Кіностудія / кінокомпанія: Walt Disney Pictures, Pop Pop Productions, Determination Productions, Mayhem Pictures,
Режисер: Ґевін О’Коннор (Gavin O'Connor)
Композитор: Марк Ішем (Mark Isham)
Актори: Курт Расселл (Kurt Russell), Патриція Кларксон, Ноа Еммеріх, Шон МакКенн, Кеннет Велш, Едді Кегіл, Патрік О’Браян Демсі, Майкл Мантенуто, Натан Вест, Кеннет Мітчел, та інші.

Сюжет:
Історія тріумфу хокейної збірної США з 18-20 літніх студентів, що прорвалась у чемпіони Олімпіади 1980 року, і перемогла непереможну радянську команду ...
MediaInfo

Код:
General
Unique ID                        : 210663301393916892763794420169901560682 (0x9E7C46AA26B743A191D17E0E95EF536A)
Complete name                    : D:\HURTOM\Miracle (2004) [Ukr, Eng] 720p [Hurtom].mkv
Format                           : Matroska
Format version                   : Version 2
File size                        : 7.21 GiB
Duration                         : 2h 15mn
Overall bit rate                 : 7 590 Kbps
Movie name                       : Miracle (2004) [Ukr, Eng] 720p [Hurtom]
Encoded date                     : UTC 2012-03-18 16:54:04
Writing application              : mkvmerge v5.0.1 ('Es ist Sommer') built on Oct  9 2011 11:55:43
Writing library                  : libebml v1.2.2 + libmatroska v1.3.0

Video
ID                               : 1
Format                           : AVC
Format/Info                      : Advanced Video Codec
Format profile                   : [email protected]
Format settings, CABAC           : Yes
Format settings, ReFrames        : 12 frames
Codec ID                         : V_MPEG4/ISO/AVC
Duration                         : 2h 15mn
Bit rate                         : 5 438 Kbps
Width                            : 1 280 pixels
Height                           : 532 pixels
Display aspect ratio             : 2.40:1
Frame rate                       : 23.976 fps
Color space                      : YUV
Chroma subsampling               : 4:2:0
Bit depth                        : 8 bits
Scan type                        : Progressive
Bits/(Pixel*Frame)               : 0.333
Stream size                      : 5.02 GiB (70%)
Title                            : Miracle (2004) [Ukr, Eng] 720p [Hurtom]
Writing library                  : core 68 r1183M f21daff
Encoding settings                : cabac=1 / ref=12 / deblock=1:-3:-3 / analyse=0x3:0x113 / me=umh / subme=9 / psy_rd=0.8:0.6 / mixed_ref=1 / me_range=32 / chroma_me=1 / trellis=2 / 8x8dct=1 / cqm=0 / deadzone=21,11 / chroma_qp_offset=-4 / threads=6 / nr=0 / decimate=1 / mbaff=0 / bframes=4 / b_pyramid=0 / b_adapt=2 / b_bias=0 / direct=3 / wpredb=1 / keyint=250 / keyint_min=25 / scenecut=40 / rc=2pass / bitrate=5438 / ratetol=1.0 / qcomp=0.60 / qpmin=10 / qpmax=51 / qpstep=4 / cplxblur=20.0 / qblur=0.5 / vbv_maxrate=50000 / vbv_bufsize=50000 / ip_ratio=1.40 / pb_ratio=1.30 / aq=1:0.70
Language                         : English
Default                          : Yes
Forced                           : No

Audio #1
ID                               : 2
Format                           : AC-3
Format/Info                      : Audio Coding 3
Mode extension                   : CM (complete main)
Codec ID                         : A_AC3
Duration                         : 2h 15mn
Bit rate mode                    : Constant
Bit rate                         : 448 Kbps
Channel(s)                       : 6 channels
Channel positions                : Front: L C R, Side: L R, LFE
Sampling rate                    : 48.0 KHz
Bit depth                        : 16 bits
Compression mode                 : Lossy
Stream size                      : 436 MiB (6%)
Title                            : 5.1 @ 448 kbps - двоголосий закадровий Студія 1+1 | Світлана Круть і Олег Лепенець
Language                         : Ukrainian
Default                          : Yes
Forced                           : No

Audio #2
ID                               : 3
Format                           :
Format/Info                      : Digital Theater Systems
Codec ID                         : A_DTS
Duration                         : 2h 15mn
Bit rate mode                    : Constant
Bit rate                         : 1 510 Kbps
Channel(s)                       : 6 channels
Channel positions                : Front: L C R, Side: L R, LFE
Sampling rate                    : 48.0 KHz
Bit depth                        : 24 bits
Compression mode                 : Lossy
Stream size                      : 1.43 GiB (20%)
Title                            : 5.1 @ 1536 kbps
Language                         : English
Default                          : No
Forced                           : No

Audio #3
ID                               : 4
Format                           : AC-3
Format/Info                      : Audio Coding 3
Format profile                   : Dolby Digital
Mode extension                   : CM (complete main)
Codec ID                         : A_AC3
Duration                         : 2h 15mn
Bit rate mode                    : Constant
Bit rate                         : 192 Kbps
Channel(s)                       : 2 channels
Channel positions                : Front: L R
Sampling rate                    : 48.0 KHz
Bit depth                        : 16 bits
Compression mode                 : Lossy
Stream size                      : 187 MiB (3%)
Title                            : 2.0 @ 192 kbps - Commentary
Language                         : English
Default                          : No
Forced                           : No

Text #1
ID                               : 5
Format                           : UTF-8
Codec ID                         : S_TEXT/UTF8
Codec ID/Info                    : UTF-8 Plain Text
Title                            : [Blu Ray] До фільму
Language                         : Ukrainian
Default                          : No
Forced                           : No

Text #2
ID                               : 6
Format                           : UTF-8
Codec ID                         : S_TEXT/UTF8
Codec ID/Info                    : UTF-8 Plain Text
Title                            : [Blu Ray] До коментарів
Language                         : Ukrainian
Default                          : No
Forced                           : No

Text #3
ID                               : 7
Format                           : UTF-8
Codec ID                         : S_TEXT/UTF8
Codec ID/Info                    : UTF-8 Plain Text
Language                         : English
Default                          : No
Forced                           : No
Релізи та інформація про озвучення/дублювання

720p Ukr/Eng | Sub Ukr/Eng (7.21 GB) - двоголосий закадровий Студія 1+1
Ukr/Eng | Sub Eng (2.85 GB) - двоголосий закадровий Студія 1+1

Переклад: Андрія Трещуна
Літературний редактор: Ольга Чернілевська
Звукорежисер: Сергій Вачі
Режисер: Володимир Коваленко
Ролі озвучили: Світлана Круть і Олег Лепенець
Тривалість: 02:15:55
Якість: 720p (RuDe)
Відео:
кодек:
розмір кадру: 1280x532
бітрейт: 5438 кб/с

Аудіо # 1:
мова: українська
переклад: двоголосий закадровий Студія 1+1 | ролі озвучили: Світлана Круть і Олег Лепенець
кодек: 5.1
бітрейт: 448 кб/с

Аудіо # 2:
мова: англійська
переклад: оригінал
кодек: 5.1
бітрейт: 1536 кб/с

Аудіо # 3:
мова: англійська (коментарі)
кодек: 2.0
бітрейт: 192 кб/с

Субтитри # 1-2:
мова: українська (до фільму і до коментарів)
тип: програмні (м'які)
формат: *.srt
джерело субтитрів: Blu Ray, обробка і редагування - w2958l

Субтитри # 3:
мова: англійська
тип: програмні (м'які)
формат: *.srt

Скріншоти:





За синхронізацію української доріжки подяка rooster,
за запис звуку подяка ProgBassing


Джерело:
Особиста оцінка: 9


Срібний реліз (на рейтинг впливає 50% завантаженого)
 Трекер:    Зареєстрований   

Завантажити / скачати фільм українською



відео для новачків



 Зареєстрований:   2012-03-18 19:08
 Розмір:   7.21 GB 
 Оцінка фільму:   7.1/10 (Голосів: 7)
   
Інші релізи
   Диво / Miracle (2004) Ukr/Eng | Sub Eng rooster  3 / 0   2.85 GB   2012-03-15 23:17 
   Життя як диво / Zivot je cudo / Life Is a Miracle (2004) ANDREW-LVIV  5 / 0   2.17 GB   2010-07-05 21:20 
bot 
робот


З нами з: 30.09.07
Востаннє: 26.05.05
Повідомлень: 15966

2012-03-18 19:06  
Тему перенесено з Анонси релізів від Відео Гуртом до форуму Фільми в HD


w2958l

waldi-hurtom 
VIP


З нами з: 07.10.12
Востаннє: 02.12.16
Повідомлень: 611

2012-12-29 19:15  
Гарний фільм. Як у машині часу повернувся у 1980, тільки з іншого боку залізної завіси. Які дива може зробити патріотизм та завзятість молоді! Це було неймовірно для всього світу. Дуже рекомендую для старперів як ліки від ностальгії за совком Happy
ХЕндрюХ 
Поважний учасник


З нами з: 14.12.09
Востаннє: 01.12.16
Повідомлень: 201

2013-07-25 23:58  
Колись давно дивився вночі по 1+1 - дуже гарний фільм.
Ваш часовий пояс: GMT + 2 Години

Нова тема   Відповісти