Завантажити та скачати торренти українською


Угода з дияволом / The Covenant (2006) 1080p Ukr/Eng | Sub Eng

Нові коментарі

Нова тема   Відповісти
Автор Повідомлення
Anonymous 







2012-03-15 23:04  
Угода з дияволом / The Covenant (2006) 1080p Ukr/Eng | Sub Eng

Угода з дияволом / The Covenant (2006) 1080p Ukr/Eng | Sub Eng
Альтернативні постери:
Угода з дияволом / The Covenant (2006) 1080p Ukr/Eng | Sub Eng
Угода з дияволом / The Covenant (2006) 1080p Ukr/Eng | Sub Eng




Жанр: фентезі, жахи, екшн
Країна: США





Кіностудія / кінокомпанія: Screen Gems, Eyetronics, Lakeshore Entertainment
Режисер: Ренні Харлін / Renny Harlin
Актори: Стівен Стрейт / Steven Strait, Лаура Ремсі / Laura Ramsey, Себастіан Стен / Sebastian Stan, Тейлор Кітч / Taylor Kitsch, Чейс Кроуфорд / Chace Crawford, Тобі Хемінгвей / Toby Hemingway, Джессіка Лукас / Jessica Lucas, Кайл Шмід / Kyle Schmid, Венді Крюсон / Wendy Crewson, Стівен МакГетті / Stephen McHattie, Кеннет Велш / Kenneth Welsh



Сюжет:
Чотири підлітка, які належать до древньої касти людей, що володіють надприродними здібностями, повинні зупинити зло, яке вони самі колись випустили на волю. Але, щоб успішно впоратися зі своєю місією, їм необхідно навчитися довіряти один одному.




Тривалість: 01:37:07
Якість:
Відео:
кодек:
розмір кадру: 1920x816
бітрейт: 5612 кб/с



Аудіо # 1:
мова: українська
переклад: двоголосий закадровий
кодек: 5.1
бітрейт: 384 кб/с

Аудіо # 2:
мова: англійська
переклад: оригінал
кодек: 5.1
бітрейт: 384 кб/с

Джерело озвучення:


Субтитри:
мова: англійська
тип: програмні (м'які)
формат: *.srt



MediaInfo

Format : Matroska
File size : 4.33 GiB
Duration : 1h 37mn
Overall bit rate : 6 381 Kbps
Encoded date : UTC 2012-03-15 20:54:05
Writing application : mkvmerge v2.4.2 ('Oh My God') built on Jan 18 2009 17:30:28
Writing library : libebml v0.7.7 + libmatroska v0.8.1
Video #1
ID : 1
Format : AVC
Format/Info : Advanced Video Codec
Format profile : [email protected]
Format settings, CABAC : Yes
Format settings, ReFrames : 5 frames
Muxing mode : Container [email protected]
Codec ID : V_MPEG4/ISO/AVC
Duration : 1h 37mn
Bit rate : 5 486 Kbps
Nominal bit rate : 5 612 Kbps
Width : 1 920 pixels
Height : 816 pixels
Display aspect ratio : 2.35:1
Frame rate : 23.976 fps
Resolution : 24 bits
Colorimetry : 4:2:0
Scan type : Progressive
Bits/(Pixel*Frame) : 0.146
Stream size : 3.72 GiB (86%)
Title : Freeisland
Writing library : core 120 r2164 da19765
Encoding settings : cabac=1 / ref=5 / deblock=1:-2:-2 / analyse=0x3:0x133 / me=umh / subme=10 / psy=1 / psy_rd=1.00:0.00 / mixed_ref=1 / me_range=32 / chroma_me=1 / trellis=2 / 8x8dct=1 / cqm=0 / deadzone=21,11 / fast_pskip=0 / chroma_qp_offset=-2 / threads=6 / sliced_threads=0 / nr=0 / decimate=1 / interlaced=0 / bluray_compat=0 / constrained_intra=0 / bframes=8 / b_pyramid=2 / b_adapt=2 / b_bias=0 / direct=3 / weightb=1 / open_gop=1 / weightp=2 / keyint=230 / keyint_min=23 / scenecut=40 / intra_refresh=0 / rc=2pass / mbtree=0 / bitrate=5612 / ratetol=2.0 / qcomp=1.00 / qpmin=0 / qpmax=51 / qpstep=4 / cplxblur=20.0 / qblur=0.5 / ip_ratio=1.40 / pb_ratio=1.30 / aq=1:1.00
Language : English
colour_primaries : BT.709-5, BT.1361, IEC 61966-2-4, SMPTE RP177
transfer_characteristics : BT.709-5, BT.1361
matrix_coefficients : BT.709-5, BT.1361, IEC 61966-2-4 709, SMPTE RP177
Audio #2
ID : 2
Format : AC-3
Format/Info : Audio Coding 3
Codec ID : A_AC3
Duration : 1h 37mn
Bit rate mode : Constant
Bit rate : 384 Kbps
Channel(s) : 6 channels
Channel positions : Front: L C R, Surround: L R, LFE
Sampling rate : 48.0 KHz
Stream size : 267 MiB (6%)
Language : Ukrainian
Audio #3
ID : 3
Format : AC-3
Format/Info : Audio Coding 3
Codec ID : A_AC3
Duration : 1h 37mn
Bit rate mode : Constant
Bit rate : 384 Kbps
Channel(s) : 6 channels
Channel positions : Front: L C R, Surround: L R, LFE
Sampling rate : 48.0 KHz
Stream size : 267 MiB (6%)
Language : English
Text #4
ID : 4
Format : UTF-8
Codec ID : S_TEXT/UTF8
Codec ID/Info : UTF-8 Plain Text
Title : Freeisland
Скріншоти









Подяки за:
наданий укр-й постер
Bohdan237

запис сирого звуку karvai0
укр-а звукова доріжка Lan

Джерело: &
Особиста оцінка: 7/10


 Трекер:    Зареєстрований   

Завантажити / скачати фільм українською



відео для новачків



 Зареєстрований:   2012-03-15 23:04
 Розмір:   4.33 GB 
 Оцінка фільму:   8.8/10 (Голосів: 11)
   
Інші релізи
Bohdan237 
Відео Гуртом - фільмокрай
Відео Гуртом - фільмокрай


З нами з: 12.02.12
Востаннє: 04.12.16
Повідомлень: 383

2012-04-19 15:47  
ОСь постер Укр мовою автора незнаю знайшов на якомусь лівому сайті тому можеш підписати що постер від мене!!
Постер Угода з дияволом

bot 
робот


З нами з: 30.09.07
Востаннє: 26.05.05
Повідомлень: 15983

2012-09-21 14:05  
Тему перенесено з Фільми в HD до форуму Неоформлене відео


urij546724

Ваш часовий пояс: GMT + 2 Години

Нова тема   Відповісти