Завантажити та скачати торренти українською


Розпусник / The Libertine (2004) 720p 2xUkr/Eng

Нові коментарі

Нова тема   Відповісти
Автор Повідомлення
ratbol 
Модератор HD


З нами з: 03.02.09
Востаннє: 01.12.16
Повідомлень: 1088

2012-03-14 22:08  
Розпусник / The Libertine (2004) 720p 2xUkr/Eng

Розпусник / The Libertine (2004) 720p 2xUkr/Eng


Жанр: історичний, драма
Країна: Великобританія, Австралія



Кіностудія / кінокомпанія: Odyssey Entertainment, Isle of Man Film, Mr. Mudd
Режисер: Лоуренс Данмор
Актори: Джонні Депп, Пол Ріттер, Джон Малковіч, Стенлі Таунсенд, Франческа Анніс, Розамунд Пайк, Том Голландер та інші
Рейтинг MPAA: дітям до 17 років обов'язкова присутність батьків



Сюжет:
Історія про поета, придворного підлесника, горезвісного розпусника Джона Вілмота, графа Рочестера. Після повернення на трон Карла II Британія перебуває у занепаді, і Вілмот вміло цим користується. Він любить жінок і любить вино, він позбавлений яких би то не було моральних орієнтирів, він гуляє і пише вірші. Але поступово він починає дратувати багатьох: від власної дружини до самого короля...


Тривалість: 01:49:37
Якість: 720p
Відео:
кодек:
розмір кадру: 1280 х 546
бітрейт: 5245 кб/с

Аудіо # 1:
мова: українська
переклад: багатоголосий закадровий | Україна
кодек: 2.0
бітрейт: 192 кб/с

Аудіо # 2:
мова: українська
переклад: багатоголосий закадровий | К1
кодек: 2.0
бітрейт: 192 кб/с

Аудіо # 2:
мова: англійська
переклад: оригінал
кодек: 5.1
бітрейт: 448 кб/с

MediaInfo
Код:
General
Unique ID                                : 249248499069179921549094049937944485545 (0xBB8383C99C6EFEE9815DA07C58681EA9)
Complete name                            : G:\Libertine, The (2004) [2xUkr, Eng] 720p [Hurtom].mkv
Format                                   : Matroska
Format version                           : Version 2
File size                                : 4.65 GiB
Duration                                 : 1h 49mn
Overall bit rate                         : 6 074 Kbps
Movie name                               : Розпусник / The Libertine (2004) [Hurtom]
Encoded date                             : UTC 2012-12-16 16:56:01
Writing application                      : mkvmerge v5.8.0 ('No Sleep / Pillow') built on Sep  2 2012 15:37:04
Writing library                          : libebml v1.2.3 + libmatroska v1.3.0

Video
ID                                       : 1
Format                                   : AVC
Format/Info                              : Advanced Video Codec
Format profile                           : [email protected]
Format settings, CABAC                   : Yes
Format settings, ReFrames                : 6 frames
Format settings, GOP                     : N=1
Codec ID                                 : V_MPEG4/ISO/AVC
Duration                                 : 1h 49mn
Bit rate                                 : 5 245 Kbps
Width                                    : 1 280 pixels
Height                                   : 546 pixels
Display aspect ratio                     : 2.35:1
Frame rate mode                          : Constant
Frame rate                               : 25.000 fps
Color space                              : YUV
Chroma subsampling                       : 4:2:0
Bit depth                                : 8 bits
Scan type                                : Progressive
Bits/(Pixel*Frame)                       : 0.300
Stream size                              : 3.92 GiB (84%)
Title                                    : ESiR
Writing library                          : core 55 svn-663C
Encoding settings                        : cabac=1 / ref=5 / deblock=1:-3:-3 / analyse=0x3:0x133 / me=hex / subme=7 / brdo=0 / mixed_ref=1 / me_range=16 / chroma_me=1 / trellis=1 / 8x8dct=1 / cqm=2 / deadzone=21,11 / chroma_qp_offset=0 / threads=2 / nr=0 / decimate=1 / mbaff=0 / bframes=3 / b_pyramid=0 / b_adapt=0 / b_bias=0 / direct=1 / wpredb=0 / bime=0 / keyint=250 / keyint_min=25 / scenecut=40(pre) / rc=2pass / bitrate=5245 / ratetol=1.0 / rceq='blurCplx^(1-qComp)' / qcomp=0.60 / qpmin=10 / qpmax=51 / qpstep=4 / cplxblur=20.0 / qblur=0.5 / ip_ratio=1.40 / pb_ratio=1.30 / aq=1:0.5:15.0
Language                                 : English
Default                                  : Yes
Forced                                   : No

Audio #1
ID                                       : 2
Format                                   : AC-3
Format/Info                              : Audio Coding 3
Mode extension                           : CM (complete main)
Format settings, Endianness              : Big
Codec ID                                 : A_AC3
Duration                                 : 1h 49mn
Bit rate mode                            : Constant
Bit rate                                 : 192 Kbps
Channel(s)                               : 2 channels
Channel positions                        : Front: L R
Sampling rate                            : 48.0 KHz
Bit depth                                : 16 bits
Compression mode                         : Lossy
Stream size                              : 151 MiB (3%)
Title                                    : 2.0 [192 Kbps] — багатоголосий закадровий | Україна
Language                                 : Ukrainian
Default                                  : Yes
Forced                                   : No

Audio #2
ID                                       : 3
Format                                   : AC-3
Format/Info                              : Audio Coding 3
Mode extension                           : CM (complete main)
Format settings, Endianness              : Big
Codec ID                                 : A_AC3
Duration                                 : 1h 49mn
Bit rate mode                            : Constant
Bit rate                                 : 192 Kbps
Channel(s)                               : 2 channels
Channel positions                        : Front: L R
Sampling rate                            : 48.0 KHz
Bit depth                                : 16 bits
Compression mode                         : Lossy
Stream size                              : 151 MiB (3%)
Title                                    : 2.0 [192 Kbps] — багатоголосий закадровий | К1
Language                                 : Ukrainian
Default                                  : No
Forced                                   : No

Audio #3
ID                                       : 4
Format                                   : AC-3
Format/Info                              : Audio Coding 3
Mode extension                           : CM (complete main)
Format settings, Endianness              : Big
Codec ID                                 : A_AC3
Duration                                 : 1h 49mn
Bit rate mode                            : Constant
Bit rate                                 : 448 Kbps
Channel(s)                               : 6 channels
Channel positions                        : Front: L C R, Side: L R, LFE
Sampling rate                            : 48.0 KHz
Bit depth                                : 16 bits
Compression mode                         : Lossy
Stream size                              : 351 MiB (7%)
Title                                    : 5.1 [448 Kbps] — оригінал
Language                                 : English
Default                                  : No
Forced                                   : No
Скріншоти





Цитата:
xslim — запис сирця для доріжки # 1
ratbol — запис сирця для доріжки # 2, синхронізація доріжок # 1-2


Джерело:


Срібний реліз (на рейтинг впливає 50% завантаженого)
 Трекер:    Зареєстрований   

Завантажити / скачати фільм українською



відео для новачків



 Зареєстрований:   2012-12-17 13:40
 Розмір:   4.65 GB 
 Оцінка фільму:   9.4/10 (Голосів: 19)
 ЗАЛИШАЙТЕСЯ НА РОЗДАЧІ ЯКОМОГА ДОВШЕ!
   
Інші релізи
   Розпусник / The Libertine (2004) 2xUkr/Eng ratbol  6 / 0   2.19 GB   2012-12-17 13:40 
assman 
VIP


З нами з: 09.11.09
Востаннє: 03.12.16
Повідомлень: 375

2012-03-15 21:06  
Я помітив цікаву особливість фільмів з Деппом - вони мені подобаються. Думаю, цей підтвердить статистику.
Косячок справжній 
VIP


З нами з: 29.02.12
Востаннє: 01.12.16
Повідомлень: 655

2012-03-16 14:29  
Що всі?
Навіть таке лайно як Ромовий щоденник?

aalleexx85 
Відео Гуртом - фільмокрай
Відео Гуртом - фільмокрай


З нами з: 27.07.10
Востаннє: 03.12.16
Повідомлень: 1138

2012-03-18 15:28  
хто завантажив фільм відпишіться про звукову доріжку

Косячок справжній написано:
Навіть таке лайно як Ромовий щоденник?

шо замало там було косячків?

Косячок справжній 
VIP


З нами з: 29.02.12
Востаннє: 01.12.16
Повідомлень: 655

2012-03-18 18:01  
Смішно, справді. Замало, більше на алкоголь він налягав. Ось у Страх і ненависть в Лас-Вегасі було якраз потрібна кількість.
Але ж фільм Ромовий щоденник просто якийсь ніякий.
Я думаю, до речі, що бути фанатом якогось актора і боготворити всі без виключення фільми з його участю, не розрізняючи їх якість - неправильно.

[email protected] 
Новенький


З нами з: 09.09.11
Востаннє: 04.05.13
Повідомлень: 8

2012-06-11 14:50  
Ромовий щоденник мені не сподобався, але може якщо під ром то піде. Треба буде попробувати Wide grin
А взагалі ролі у нього цікаві.

Додано через 1 хвилину 8 секунд:

А я чогось не можу скачати Sad (1)

ilitbr 
VIP


З нами з: 25.05.09
Востаннє: 30.11.16
Повідомлень: 428

2012-12-17 18:37  
А я був у захваті від Ромового щоденника. Деп там дуже натурально (вважай по-тексту) зіграв героя Хантерівського твору.
LesiaLesia 
Новенький


З нами з: 03.05.12
Востаннє: 25.11.16
Повідомлень: 9

2013-07-06 15:55  
Просто справа в тому, що Джонні Депп, мабуть , найкращий актор, якого я коли-небудь знав.
малюк94 
VIP


З нами з: 03.03.10
Востаннє: 22.11.16
Повідомлень: 410

2013-08-31 17:09  
станьте на роздачу
Ваш часовий пояс: GMT + 2 Години

Нова тема   Відповісти