Завантажити та скачати торренти українською


Вільні / Footloose (2011) 720p-mini Eng | sub Ukr

Нові коментарі

Нова тема   Відповісти
Останній раз роздавалося 4y6 (2015-11-30)
Автор Повідомлення
Anonymous 







2012-03-14 17:01  
Вільні / Footloose (2011) 720p-mini Eng | sub Ukr

Вільні / Footloose (2011) 720p-mini Eng | sub Ukr


Жанр: драма, комедія, музичний
Країна: США



Режисер: Крейг Брюер
Актори: Кенні Вормолд, Джуліанна Хаф, Денніс Куейд, Енді Макдауелл, Майлз Теллер, Рей МакКіннон, Патрік Флюгер, Кім Діккенс, Зіа Колон

Сюжет:
Рен МакКормак переїжджає з сім'єю з мегаполіса в тихе провінційне містечко, в якому заборонені рок-музика і танці. Заручившись підтримкою свого приятеля і юної коханої, герой вирішує змінити старомодні порядки, встановлені преподобним батьком Муром, і змусити благочестивих городян «згадати молодість».


Тривалість: 01:53:23
Якість: 720p-mini
Відео:
кодек:
розмір кадру: 1280x544
бітрейт: 2199 кб/с

Аудіо:
мова: англійська
переклад: оригінал
кодек: 2.0
бітрейт: 192 кб/с

Субтитри:
мова: українська
тип: програмні (м'які)
формат: *.srt
Джерело субтитрів:
MediaInfo
General
UniqueID : 173455839270837234110133271816690174769 (0x827E61262106A8138EC71E8C1C9B8B31)
Complete name : C:\Users\Vasua95\Desktop\Footloose (2011) AVC [eng] [sub ukr] [Hurtom] by Vasua95.mkv
Format : Matroska
File size : 1.89 GiB
Duration : 1h 53mn
Overall bit rate : 2 390 Kbps
Movie name : Свободные / Footloose (2011) 720p - firebit.org
Encoded date : UTC 2012-03-14 14:29:29
Writing application : mkvmerge v4.9.1 ('Ich will') зібрано Jul 11 2011 23:53:15
Writing library : libebml v1.2.1 + libmatroska v1.1.1

Video
ID : 1
Format : AVC
Format/Info : Advanced Video Codec
Format profile : [email protected]
Format settings, CABAC : Yes
Format settings, ReFrames : 6 frames
Format settings, GOP : M=6, N=24
Codec ID : V_MPEG4/ISO/AVC
Duration : 1h 53mn
Bit rate : 2 199 Kbps
Width : 1 280 pixels
Height : 544 pixels
Display aspect ratio : 2.35:1
Frame rate : 23.976 fps
Color space : YUV
Chroma subsampling : 4:2:0
Bit depth : 8 bits
Scan type : Progressive
Bits/(Pixel*Frame) : 0.132
Stream size : 1.70 GiB (90%)
Writing library : core 120 r2146 bcd41db
Encoding settings : cabac=1 / ref=6 / deblock=1:-3:-1 / analyse=0x3:0x113 / me=umh / subme=7 / psy=1 / psy_rd=1.00:0.00 / mixed_ref=1 / me_range=32 / chroma_me=1 / trellis=2 / 8x8dct=1 / cqm=0 / deadzone=21,11 / fast_pskip=1 / chroma_qp_offset=-2 / threads=6 / sliced_threads=0 / nr=0 / decimate=1 / interlaced=0 / bluray_compat=0 / constrained_intra=0 / bframes=5 / b_pyramid=0 / b_adapt=1 / b_bias=0 / direct=1 / weightb=1 / open_gop=0 / weightp=2 / keyint=240 / keyint_min=23 / scenecut=40 / intra_refresh=0 / rc_lookahead=40 / rc=2pass / mbtree=1 / bitrate=2199 / ratetol=1.0 / qcomp=0.60 / qpmin=10 / qpmax=51 / qpstep=4 / cplxblur=20.0 / qblur=0.5 / vbv_maxrate=50000 / vbv_bufsize=50000 / nal_hrd=none / ip_ratio=1.40 / aq=1:1.00
Language : English

Audio
ID : 2
Format : AC-3
Format/Info : Audio Coding 3
Mode extension : CM (complete main)
Codec ID : A_AC3
Duration : 1h 53mn
Bit rate mode : Constant
Bit rate : 192 Kbps
Channel(s) : 2 channels
Channel positions : Front: L R
Sampling rate : 48.0 KHz
Bit depth : 16 bits
Compression mode : Lossy
Stream size : 156 MiB (8%)
Title : http://firebit.org
Language : English

Text
ID : 3
Format : UTF-8
Codec ID : S_TEXT/UTF8
Codec ID/Info : UTF-8 Plain Text
Language : Ukrainian
Скріншоти





Джерело: &
Особиста оцінка: 0 - не дивився


 Трекер:    Зареєстрований   

Завантажити / скачати фільм українською



відео для новачків



 Зареєстрований:   2012-03-14 17:01
 Розмір:   1.89 GB 
 Оцінка фільму:   6.5/10 (Голосів: 17)
   
olyx 
Відео Гуртом - підтримка та поширення
Відео Гуртом - підтримка та поширення


З нами з: 25.01.10
Востаннє: 05.10.16
Повідомлень: 231

2012-03-15 18:12  
bot
А чому такі релізи не сидять у Фільмах, а перекочовують у Фільми в HD?
Чим вони відрізняються від звичайних ріпів такої ж якості? Хіба не логічно їх було б там і залишити?

pyatachok 
Координатор літератури


З нами з: 30.01.10
Востаннє: 06.12.16
Повідомлень: 1337

2012-03-15 18:24  
olyx

Vasua95 написано:
1280x544

olyx 
Відео Гуртом - підтримка та поширення
Відео Гуртом - підтримка та поширення


З нами з: 25.01.10
Востаннє: 05.10.16
Повідомлень: 231

2012-03-15 19:09  
Це не показник...
Ви ще не врахували бітрейт відео...
Ось тут http://toloka.to/t34272 наприклад майже та сама якість, як, до речі, і розмір кадру, але чомусь його у Фільми в HD не переносять...

olyx 
Відео Гуртом - підтримка та поширення
Відео Гуртом - підтримка та поширення


З нами з: 25.01.10
Востаннє: 05.10.16
Повідомлень: 231

2012-03-17 10:46  
Так ніхто і не може пояснити...
Значить все залежить від положення зірок в момент створення релізу)))

Tarasyk 
Відео Гуртом - фільмокрай
Відео Гуртом - фільмокрай


З нами з: 26.08.09
Востаннє: 28.11.16
Повідомлень: 5972

2012-06-26 20:07  
olyx, той реліз не HD, а це HD. Різниця в розмірі кадру. 1280[544 - вже HD, а 1168x... - ще ні.

Щодо фільму, то хоч тут і шаблонний сюжет і купа американських штампів, but it's so awesome! Справді, дуже сподобався фільм!

Додано через 6 хвилин 24 секунди:

Сам закинув саби на сервер, бо недопрохаєшся.

V0vlk 
Новенький


З нами з: 11.04.12
Востаннє: 29.06.16
Повідомлень: 4

2012-11-19 14:26  
станьте на роздачу!!!!!
bero 
Новенький


З нами з: 21.12.11
Востаннє: 07.04.14
Повідомлень: 19

2012-12-24 02:38  
буду озвучувати
waldi-hurtom 
VIP


З нами з: 07.10.12
Востаннє: 05.12.16
Повідомлень: 611

2013-01-03 16:31  
Дуже добрий фільм як на молодіжну комедію. Сюжет -неправдоподібний як на 21ст. - рімейк старезного фільму. Але головна подія цього фільму - відкриття для публіки Кенні Волморда. Він мені нагадав молодого Джоні Депа - живе обличчя, що "говорить", плюс чудове володіння тілом. Без цього актора фільм загубився б на смітниках голівуду. 8 балів!
alisonya 
Частий відвідувач


З нами з: 07.04.11
Востаннє: 02.12.16
Повідомлень: 32

2014-11-25 11:40  
шкода, що на толоці нема фільму 1984 року з Кевіном Бейконом. саме його хотіла подивитися, а тут лише рімейк. доведеться дивитися кацапською Confused
Ваш часовий пояс: GMT + 2 Години

Нова тема   Відповісти