Завантажити та скачати торренти українською


Екзамен / Exam (2009) 720p-mini | Sub Eng

Нові коментарі

Нова тема   Відповісти
Автор Повідомлення
Nikson 
VIP


З нами з: 12.01.10
Востаннє: 06.12.16
Повідомлень: 655

2012-03-14 16:10  
Екзамен / Exam (2009) 720p-mini | Sub Eng

Екзамен / Exam (2009) 720p-mini | Sub Eng


Жанр: трилер, детектив
Країна: Великобританія



Кіностудія / кінокомпанія: Bedlam Productions
Режисер: Стюарт Хезелдайн
Актори: Адар Бек, Джема Чан, Наталі Кокс, Джон Лойд Філінгем, Чаквуді Івуджи, Поліана МакІнтош, Люк Меблі, Джимі Містрі, Колін Селмон, Кріс Кері.

Сюжет:
Одна велика корпорація проводить кастинг на вакантну посаду. Вісім успішних кандидатів дійшли до заключного етапу виборів. Кожен хоче стати щасливчиком, і заради цього готовий розправитися з суперниками ... Дійство фільму посилює обмежений простір і психологічний тиск, відчуття безнадійності і відчаю, який відчувають герої, поставлені в безвихідне становище.


Тривалість: 01:36:52
Якість:
Відео:
кодек:
розмір кадру: 1280x544
бітрейт: 2810 кб/с

Аудіо:
мова: українська
переклад: двохголосий закадровий
кодек: MP3 2.0
бітрейт: 192 кб/с

Джерело озвучення:


Субтитри:
мова: англійська
тип: програмні (м'які)
формат: *.srt
MediaInfo

General
Unique ID : 181325861682160839876218483494589776511 (0x886A17362F635F68B3DBD57404DF427F)
Complete name : z:\Exam.2009..720p.Hurtom&NOLIMITS-TEAM.mkv
Format : Matroska
Format version : Version 2
File size : 2.03 GiB
Duration : 1h 36mn
Overall bit rate : 3 002 Kbps
Encoded date : UTC 2012-03-13 21:07:21
Writing application : mkvmerge v5.3.0 ('I could have danced') built on Feb 9 2012 10:38:07
Writing library : libebml v1.2.3 + libmatroska v1.3.0

Video
ID : 1
Format : AVC
Format/Info : Advanced Video Codec
Format profile : [email protected]
Format settings, CABAC : Yes
Format settings, ReFrames : 9 frames
Codec ID : V_MPEG4/ISO/AVC
Duration : 1h 36mn
Bit rate : 2 810 Kbps
Width : 1 280 pixels
Height : 544 pixels
Display aspect ratio : 2.35:1
Original display aspect ratio : 2.35:1
Frame rate : 25.000 fps
Color space : YUV
Chroma subsampling : 4:2:0
Bit depth : 8 bits
Scan type : Progressive
Bits/(Pixel*Frame) : 0.161
Stream size : 1.86 GiB (92%)
Title : Экзамен / Exam (2009) 720p от NOLIMITS-TEAM
Writing library : core 115 r1995 c1e60b9
Encoding settings : cabac=1 / ref=9 / deblock=1:-1:-1 / analyse=0x3:0x133 / me=hex / subme=10 / psy=1 / psy_rd=1.00:0.15 / mixed_ref=1 / me_range=16 / chroma_me=1 / trellis=2 / 8x8dct=1 / cqm=0 / deadzone=21,11 / fast_pskip=0 / chroma_qp_offset=-3 / threads=6 / sliced_threads=0 / slices=4 / nr=0 / decimate=1 / interlaced=0 / bluray_compat=0 / constrained_intra=0 / bframes=8 / b_pyramid=2 / b_adapt=2 / b_bias=0 / direct=1 / weightb=1 / open_gop=1 / weightp=2 / keyint=250 / keyint_min=25 / scenecut=40 / intra_refresh=0 / rc_lookahead=40 / rc=2pass / mbtree=1 / bitrate=2810 / ratetol=1.0 / qcomp=0.60 / qpmin=0 / qpmax=51 / qpstep=4 / cplxblur=20.0 / qblur=0.5 / ip_ratio=1.40 / aq=2:1.00
Language : English
Default : Yes
Forced : No

Audio
ID : 2
Format : MPEG Audio
Format version : Version 1
Format profile : Layer 3
Codec ID : A_MPEG/L3
Codec ID/Hint : MP3
Duration : 1h 36mn
Bit rate mode : Constant
Bit rate : 192 Kbps
Channel(s) : 2 channels
Sampling rate : 44.1 KHz
Compression mode : Lossy
Stream size : 133 MiB (6%)
Default : Yes
Forced : No

Text
ID : 3
Format : UTF-8
Codec ID : S_TEXT/UTF8
Codec ID/Info : UTF-8 Plain Text
Language : English
Default : No
Forced : No
Скріншоти:



Подяка пану igrik09 за надану звукову доріжку
Реліз створений на основі https://toloka.to/t32976

Джерело: &
Особиста оцінка: 0 - ще не переглянув


 Трекер:    Зареєстрований   

Завантажити / скачати фільм українською



відео для новачків



 Зареєстрований:   2012-03-14 16:10
 Розмір:   2.03 GB 
 Оцінка фільму:   8.5/10 (Голосів: 30)
   
Інші релізи
   Екзамен / Exam (2009) AngryBirdsUA  9 / 0   1.5 GB   2012-05-06 22:26 
   Екзамен / Exam (2009) AVC igrik09  6 / 0   1.29 GB   2012-02-13 20:00 
Nikson 
VIP


З нами з: 12.01.10
Востаннє: 06.12.16
Повідомлень: 655

2012-03-14 16:55  
Роздача буде поновлена після 19.00
pyatachok 
Координатор літератури


З нами з: 30.01.10
Востаннє: 06.12.16
Повідомлень: 1337

2012-03-14 18:47  
Nikson написано:
бітрейт: 2810 кб/с

А це хіба не міні?

Nikson 
VIP


З нами з: 12.01.10
Востаннє: 06.12.16
Повідомлень: 655

2012-03-14 19:16  
pyatachok написано:
А це хіба не міні?

Міні але коли я хотів написати в попередньому релізі міні, мені сказали що не потрібно

braveboy 
Відео Гуртом - команда HD
Відео Гуртом - команда HD


З нами з: 15.06.10
Востаннє: 29.10.16
Повідомлень: 958

2012-03-14 20:49  
Nikson написано:
Екзамен / Exam (2009) 720p


допиши в назві mini

Nikson написано:
Скріншоти


скріншоти повинні бути в png

Nikson 
VIP


З нами з: 12.01.10
Востаннє: 06.12.16
Повідомлень: 655

2012-03-14 21:24  
braveboy написано:

допиши в назві mini
скріншоти повинні бути в png

Виправив

braveboy 
Відео Гуртом - команда HD
Відео Гуртом - команда HD


З нами з: 15.06.10
Востаннє: 29.10.16
Повідомлень: 958

2012-03-14 21:51  
Nikson
також в назві допиши анг. саби 720p-mini | Sub Eng

leroykendall 
Модератор HD


З нами з: 03.01.11
Востаннє: 20.11.16
Повідомлень: 749

2012-03-14 22:32  
braveboy написано:
також в назві допиши анг. саби 720p-mini | Sub Eng

+1
І витягніть зпід спойлеру скріншоти.

ФілД 
Новенький


З нами з: 14.04.12
Востаннє: 11.04.14
Повідомлень: 18

2012-07-15 20:09  
пані та панове, прошу піддати швидкості)
waldi-hurtom 
VIP


З нами з: 07.10.12
Востаннє: 05.12.16
Повідомлень: 611

2012-12-14 19:53  
Яких лише проблем не висмокчуть з пальця, якщо немає жодної думки крім однієї - де взяти гроші. Нудний фільм, не варто витрачати час.
taras1994 
Почесний оцифрувальник літератури


З нами з: 23.03.12
Востаннє: 30.11.16
Повідомлень: 5096

2012-12-15 18:04  
waldi-hurtom написано:
Яких лише проблем не висмокчуть з пальця, якщо немає жодної думки крім однієї - де взяти гроші. Нудний фільм, не варто витрачати час.

це той фільм, який варто дивитися заради того щоб побачити гру акторів, мені сподобалася їхня гра.

seroga13 
VIP


З нами з: 22.06.09
Востаннє: 05.12.16
Повідомлень: 257

2013-11-02 12:40  
Фільм супер!
user_658 
Новенький


З нами з: 24.08.14
Востаннє: 16.10.16
Повідомлень: 5

2016-02-01 22:40  
Фільм тримає глядача в напрузі до фінального моменту. Цікаво було дивитись як кандидати розмірковують, прагнуть знайти відповідь на питання будь-яким способом. І ця ізоляція від усіх законів, крім правил в закритому просторі, створює якусь особливу атмосферу. Особливість цього фільму в тому, що кандидати знаходяться під психологічним тиском. Проте сам сюжет фільму нудний та місцями затягнутий. Другий раз дивитись його вже не хочеться. Але фільм вартий перегляду.

8/10

Ua.bos_01 
VIP


З нами з: 22.06.15
Востаннє: 05.12.16
Повідомлень: 1291

2016-02-15 13:57  
Сам задум досить непоганий. І справді у фільмі присутній деякий посил, який потрібно побачити, однак весь сюжет фільму - беззмістовність та тупість. Гра ГГ не вражає. Навіть не потрібно було вгадувати, що там є підсадка качка, і я одразу зрозумів, що це француз. Не вражений фільмом як творінням, однак дещо з нього взяти можна, але лише дещо.
Ваш часовий пояс: GMT + 2 Години

Нова тема   Відповісти