Завантажити та скачати торренти українською


Версія / Rendition (2007) 720р Ukr/Eng | sub Ukr/Eng

Нові коментарі

Нова тема   Відповісти
Автор Повідомлення
pyatachok 
Координатор літератури


З нами з: 30.01.10
Востаннє: 10.12.16
Повідомлень: 1337

2012-03-12 16:43  
Версія / Rendition (2007) 720p Ukr/Eng | sub Ukr/Eng

Версія / Rendition (2007) 720р Ukr/Eng | sub Ukr/Eng

Альтернативний постер:


Жанр: трилер, драма
Країна: США



Кіностудія / кінокомпанія: New Line Cinema, Dune Films.
Режисер: Гевін Худ (Gavin Hood)
Актори: Різ Візерспун (Reese Witherspoon), Джейк Гілленхал (Jake Gyllenhaal), Меріл Стріп (Meryl Streep), Омар Метуоллі (Omar Metwally), Боб Гантон (Bob Gunton), Дж. К. Сіммонс (J.K. Simmons)

Сюжет:
Коли при перельоті з Африки до Америки безслідно "зникає" єгиптянин Анвар, підозрюваний в тероризмі, його американська дружина Ізабелла і аналітик ЦРУ Дуглас, всіма силами намагаються визволити його із секретної в'язниці, що знаходиться за межами США, де Анвара піддають жорстоким тортурам, намагаючись «вибити» з нього зізнання.


Тривалість: 02:02:20
Якість: 720р
Відео:
кодек:
розмір кадру: 1280x544
бітрейт: 3578 кб/с

Аудіо #1:
мова: українська
переклад: багатоголосий закадровий
кодек: 5.1
бітрейт: 448 кб/с

Джерело озвучення:
Так Треба Продакшн на замовлення телеканалу

Аудіо #2:
мова: англійська
переклад: оригінал
кодек: 5.1
бітрейт: 1510 кб/с

Субтитри #1:
мова: українська (частково редаговані)
тип: програмні (м'які)
формат: *.srt

Субтитри #2 (у місцях з арабською мовою):
мова: англійська
тип: програмні (м'які)
формат: *.ASS

Субтитри #3:
мова: англійська
тип: програмні (м'які)
формат: *.ASS

Джерело субтитрів:


Скріншоти:



MediaInfo
Код:
General
Unique ID                        : 198894860656171954616389886847195381084 (0x95A1C1BD22F566BD85A60CB8098D7D5C)
Complete name                    : D:\Rendition (2007) [ukr,eng] 720p [Hurtom].mkv
Format                           : Matroska
Format version                   : Version 2
File size                        : 4.73 GiB
Duration                         : 2h 2mn
Overall bit rate                 : 5 538 Kbps
Movie name                       : Rendition (2007)
Encoded date                     : UTC 2012-03-12 13:55:37
Writing application              : mkvmerge v4.9.1 ('Ich will') зібрано Jul 11 2011 23:53:15
Writing library                  : libebml v1.2.1 + libmatroska v1.1.1

Video
ID                               : 1
Format                           : AVC
Format/Info                      : Advanced Video Codec
Format profile                   : [email protected]
Format settings, CABAC           : Yes
Format settings, ReFrames        : 10 frames
Codec ID                         : V_MPEG4/ISO/AVC
Duration                         : 2h 2mn
Bit rate                         : 3 578 Kbps
Width                            : 1 280 pixels
Height                           : 544 pixels
Display aspect ratio             : 2.35:1
Frame rate                       : 23.976 fps
Color space                      : YUV
Chroma subsampling               : 4:2:0
Bit depth                        : 8 bits
Scan type                        : Progressive
Bits/(Pixel*Frame)               : 0.214
Stream size                      : 2.97 GiB (63%)
Writing library                  : core 58
Encoding settings                : cabac=1 / ref=10 / deblock=1:-3:-3 / analyse=0x3:0x133 / me=umh / subme=6 / me-prepass=0 / brdo=1 / mixed_ref=1 / me_range=16 / chroma_me=1 / trellis=0 / 8x8dct=1 / cqm=2 / deadzone=7,7 / chroma_qp_offset=0 / threads=3 / nr=0 / decimate=1 / mbaff=0 / bframes=3 / b_pyramid=1 / b_adapt=1 / b_bias=0 / direct=1 / wpredb=1 / bime=1 / keyint=250 / keyint_min=25 / scenecut=40(pre) / rc=2pass / bitrate=3578 / ratetol=1.0 / rceq='blurCplx^(1-qComp)' / qcomp=1.00 / qpmin=10 / qpmax=51 / qpstep=4 / cplxblur=20.0 / qblur=0.5 / ip_ratio=1.40 / pb_ratio=1.30 / aq=1:0.5:15.0
Language                         : English
Default                          : Yes
Forced                           : No

Audio #1
ID                               : 2
Format                           : AC-3
Format/Info                      : Audio Coding 3
Mode extension                   : CM (complete main)
Codec ID                         : A_AC3
Duration                         : 2h 2mn
Bit rate mode                    : Constant
Bit rate                         : 448 Kbps
Channel(s)                       : 6 channels
Channel positions                : Front: L C R, Side: L R, LFE
Sampling rate                    : 48.0 KHz
Bit depth                        : 16 bits
Compression mode                 : Lossy
Stream size                      : 392 MiB (8%)
Title                            : 5.1
Language                         : Ukrainian
Default                          : Yes
Forced                           : No

Audio #2
ID                               : 3
Format                           :
Format/Info                      : Digital Theater Systems
Codec ID                         : A_DTS
Duration                         : 2h 2mn
Bit rate mode                    : Constant
Bit rate                         : 1 510 Kbps
Channel(s)                       : 6 channels
Channel positions                : Front: L C R, Side: L R, LFE
Sampling rate                    : 48.0 KHz
Bit depth                        : 24 bits
Compression mode                 : Lossy
Stream size                      : 1.29 GiB (27%)
Title                            : 5.1
Language                         : English
Default                          : No
Forced                           : No

Text #1
ID                               : 4
Format                           : UTF-8
Codec ID                         : S_TEXT/UTF8
Codec ID/Info                    : UTF-8 Plain Text
Title                            : Українська
Language                         : Ukrainian
Default                          : No
Forced                           : No

Text #2
ID                               : 5
Format                           : ASS
Codec ID                         : S_TEXT/ASS
Codec ID/Info                    : Advanced Sub Station Alpha
Compression mode                 : Lossless
Title                            : English - Arabic parts
Language                         : English
Default                          : Yes
Forced                           : No

Text #3
ID                               : 6
Format                           : ASS
Codec ID                         : S_TEXT/ASS
Codec ID/Info                    : Advanced Sub Station Alpha
Compression mode                 : Lossless
Title                            : English
Language                         : English
Default                          : No
Forced                           : No



За запис звуку подяка MAKAPOHHIK
За українізацію постерів подяка Gelios та bilenkuyboy
За надану звукову доріжку та код оформлення подяка RosXXX


Джерело:
Особиста оцінка: 0 - не дивився


 Трекер:    Зареєстрований   

Завантажити / скачати фільм українською



відео для новачків



 Зареєстрований:   2012-03-12 16:43
 Розмір:   4.73 GB 
 Оцінка фільму:   8.4/10 (Голосів: 7)
   
Інші релізи
   Версія / Rendition (2007) Ukr/Eng | sub Ukr RosXXX  1 / 0   1.46 GB   2012-03-11 13:04 
Віктор 
Відео Гуртом - субтитрування
Відео Гуртом - субтитрування


З нами з: 09.01.10
Востаннє: 11.12.16
Повідомлень: 8664

2012-03-12 16:46  
pyatachok написано:
Додам ввечері

Так, шановні, не нахабнійте, додам ввечері, а чому не післязавтра? Скріншоти це один з головних критеріїв за якими можна визначити якість. Тому неоформлено.

bot 
робот


З нами з: 30.09.07
Востаннє: 26.05.05
Повідомлень: 16048

2012-03-12 16:47  
Тему перенесено з Фільми в HD до форуму Неоформлене відео


w2958l

pyatachok 
Координатор літератури


З нами з: 30.01.10
Востаннє: 10.12.16
Повідомлень: 1337

2012-03-12 19:37  
w2958l
Вибачте, але я справді терміново мав іншу роботу і навіть на думці не мав нахабніти, а самостійно перенести в неоформлені не додумався.

bot 
робот


З нами з: 30.09.07
Востаннє: 26.05.05
Повідомлень: 16048

2012-03-12 19:39  
Тему перенесено з Неоформлене відео до форуму Фільми в HD


w2958l

Gelios 
Відео Гуртом - дизайнер
Відео Гуртом - дизайнер


З нами з: 03.09.11
Востаннє: 10.12.16
Повідомлень: 1884

2012-03-12 20:00  
pyatachok
Трохи поправив постер:
Версія / Rendition (2007)

pyatachok 
Координатор літератури


З нами з: 30.01.10
Востаннє: 10.12.16
Повідомлень: 1337

2012-03-12 20:03  
Gelios
Дякую, замінив.

waldi-hurtom 
VIP


З нами з: 07.10.12
Востаннє: 10.12.16
Повідомлень: 613

2012-12-29 10:05  
Непоганий, майже правдивий фільм про антиісламську істерію, спецслужби та смертників джихадістів. Замкнене коло. Звісно, не обійшлось про введення в сюжет на місце природних циніків неприродних романтиків - одного політика та одного офіцера цру. Але без цих неприродних підмін сюжет вийшов би депресивно безисходним. Але, в порівнянні з іншими фільмами про цру цей виглядає майже реалістичним. 7 балів.
Ваш часовий пояс: GMT + 2 Години

Нова тема   Відповісти