Завантажити та скачати торренти українською


Спустошене місто / Reign Over Me (2007) 720p Ukr/Eng | Sub Ukr/Eng

Нові коментарі

Нова тема   Відповісти
Автор Повідомлення
leroykendall 
Модератор HD


З нами з: 03.01.11
Востаннє: 20.11.16
Повідомлень: 749

2012-03-10 23:03  
Спустошене місто / Reign Over Me (2007) 720p Ukr/Eng | Sub Ukr/Eng

Спустошене місто / Reign Over Me (2007) 720p Ukr/Eng | Sub Ukr/Eng

«Live every day like it's the best day of your life.»


Жанр: драма
Країна: США




Кіностудія / кінокомпанія: Relativity Media, Madison 23, Sunlight Productions
Режисер: Майк Біндер (Mike Binder)
Актори: Адам Сендлер (Adam Sandler), Дон Чідл (Don Cheadle), Джада Пінкет Сміт (Jada Pinkett Smith), Лів Тайлер (Liv Tyler), Саффрон Берровс (Saffron Burrows), Дональд Сазерленд (Donald Sutherland)

Сюжет:
Чарлі Файнмен і Алан Джонсон колись разом вчилися в коледжі і ділили одну кімнату в гуртожитку. Через роки вони зустрічаються знову і поновлюють дружні відносини. Доля по-різному обійшлася з ними.

Чарлі, який втратив під час терактів 11 вересня дружину і дітей, поставив на своєму житті хрест. Алан став хорошим дантистом і зразковим сім'янином. Випадкова зустріч стає для них переломним моментом в житті, оскільки і той, і інший як ніколи відчувають потребу в відданому другові ...


Тривалість: 02:04:34
Якість: 720p
Відео:
кодек:
розмір кадру: 1280 х 534
бітрейт: 4780 кб/с

Аудіо # 1:
мова: українська
переклад: багатоголосий закадровий
кодек: 5.1
бітрейт: 448 кб/с

Аудіо # 2:
мова: англійська
переклад: оригінал
кодек: 5.1
бітрейт: 1536 кб/с

Джерело озвучення: "ТакТребаПродакшн" для

Субтитри # 1:
мова: українська
тип: програмні (м'які)
формат: *.srt

Субтитри # 2:
мова: англійська
тип: програмні (м'які)
формат: *.srt

Субтитри # 3:
мова: англійська SDH
тип: програмні (м'які)
формат: *.srt

Збережені оригінальні чаптери як на Blu-ray.


MediaInfo
Код:
General
Complete name                    : V:\Reign Over Me (2007) [Ukr, Eng] 720p [Hurtom, HDClub] by leroykendall.mkv
Format                           : Matroska
File size                        : 5.98 GiB
Duration                         : 2h 4mn
Overall bit rate                 : 6 874 Kbps
Movie name                       : Reign Over Me (2007) [Ukr, Eng] 720p [Hurtom, HDClub] by leroykendall
Encoded date                     : UTC 2012-03-10 17:54:00
Writing application              : mkvmerge v4.9.1 ('Ich will') зібрано Jul 11 2011 23:53:15
Writing library                  : libebml v1.2.1 + libmatroska v1.1.1

Video
ID                               : 1
Format                           : AVC
Format/Info                      : Advanced Video Codec
Format profile                   : [email protected]
Format settings, CABAC           : Yes
Format settings, ReFrames        : 7 frames
Muxing mode                      : Container [email protected]
Codec ID                         : V_MPEG4/ISO/AVC
Duration                         : 2h 4mn
Bit rate                         : 4 780 Kbps
Width                            : 1 280 pixels
Height                           : 534 pixels
Display aspect ratio             : 2.35:1
Frame rate                       : 23.976 fps
Resolution                       : 24 bits
Colorimetry                      : 4:2:0
Scan type                        : Progressive
Bits/(Pixel*Frame)               : 0.292
Stream size                      : 4.15 GiB (69%)
Title                            : Reign Over Me (2007)
Writing library                  : core 104 r1688 0b36c6d
Encoding settings                : cabac=1 / ref=7 / deblock=1:-3:-3 / analyse=0x3:0x113 / me=umh / subme=10 / psy=1 / psy_rd=1.00:0.00 / mixed_ref=1 / me_range=64 / chroma_me=1 / trellis=2 / 8x8dct=1 / cqm=0 / deadzone=21,11 / fast_pskip=0 / chroma_qp_offset=-2 / threads=6 / sliced_threads=0 / nr=0 / decimate=1 / interlaced=0 / constrained_intra=0 / bframes=7 / b_pyramid=2 / b_adapt=2 / b_bias=0 / direct=3 / weightb=1 / open_gop=0 / weightp=2 / keyint=250 / keyint_min=23 / scenecut=40 / intra_refresh=0 / rc=crf / mbtree=0 / crf=17.0 / qcomp=0.60 / qpmin=10 / qpmax=51 / qpstep=4 / ip_ratio=1.40 / pb_ratio=1.30 / aq=1:0.80

Audio #1
ID                               : 2
Format                           : AC-3
Format/Info                      : Audio Coding 3
Codec ID                         : A_AC3
Duration                         : 2h 4mn
Bit rate mode                    : Constant
Bit rate                         : 448 Kbps
Channel(s)                       : 6 channels
Channel positions                : Front: L C R, Surround: L R, LFE
Sampling rate                    : 48.0 KHz
Stream size                      : 399 MiB (7%)
Title                            : 5.1 @ 448 кб/с - багатоголосий закадровий ТакТребаПродакшн
Language                         : Ukrainian

Audio #2
ID                               : 3
Format                           :
Format/Info                      : Digital Theater Systems
Codec ID                         : A_DTS
Duration                         : 2h 4mn
Bit rate mode                    : Constant
Bit rate                         : 1 510 Kbps
Channel(s)                       : 6 channels
Channel positions                : Front: L C R, Surround: L R, LFE
Sampling rate                    : 48.0 KHz
Resolution                       : 16 bits
Stream size                      : 1.31 GiB (22%)
Title                            : 5.1 @ 1536 kbps

Text #1
ID                               : 4
Format                           : UTF-8
Codec ID                         : S_TEXT/UTF8
Codec ID/Info                    : UTF-8 Plain Text
Language                         : Ukrainian

Text #2
ID                               : 5
Format                           : UTF-8
Codec ID                         : S_TEXT/UTF8
Codec ID/Info                    : UTF-8 Plain Text

Text #3
ID                               : 6
Format                           : UTF-8
Codec ID                         : S_TEXT/UTF8
Codec ID/Info                    : UTF-8 Plain Text
Title                            : sdh

Menu
00:00:00.000                     : en:1
00:08:19.624                     : en:2
00:15:49.740                     : en:3
00:20:49.706                     : en:4
00:27:46.498                     : en:5
00:34:52.090                     : en:6
00:42:20.955                     : en:7
00:47:02.778                     : en:8
00:55:57.437                     : en:9
01:00:21.117                     : en:10
01:05:17.121                     : en:11
01:12:00.566                     : en:12
01:19:09.995                     : en:13
01:31:12.341                     : en:14
01:40:52.963                     : en:15
01:50:58.985                     : en:16
Скріншоти:







Подяки
Пану urij546724 за запис звуку
Пану bilenkuyboy за українізований постер
Пану _oles за еталонний реліз та звукову доріжку



Джерело: &
Особиста оцінка: 8 - один з кращих фільмів я коли-небудь бачив


 Трекер:    Зареєстрований   

Завантажити / скачати фільм українською



відео для новачків



 Зареєстрований:   2012-03-10 23:03
 Розмір:   5.98 GB 
 Оцінка фільму:   9.5/10 (Голосів: 19)
   
Інші релізи
   Спустошене місто / Reign Over Me (2007) St.Bogush  2 / 0   1.45 GB   2012-08-24 16:38 
   Спустошене місто / Reign Over Me (2007) Ukr/Eng | Sub Ukr/Eng _oles  3 / 2   2.57 GB   2012-02-14 17:35 
waldi-hurtom 
VIP


З нами з: 07.10.12
Востаннє: 03.12.16
Повідомлень: 611

2013-01-02 17:49  
Можливо, це особиста антипатія, але Сендлер грає геть непереконливо, як і більшість акторів другого ряду. Цікава задумка, але змарнована, фільм вийшов посередній. 6 балів.
leroykendall 
Модератор HD


З нами з: 03.01.11
Востаннє: 20.11.16
Повідомлень: 749

2013-01-03 10:18  
waldi-hurtom
Вимушений не погодитись. На мою думку Сендлер зіграв неперевершено. Як раз після цього фільму я його почав поважати як актора.

Elektrodd 
Частий відвідувач


З нами з: 12.01.13
Востаннє: 02.12.16
Повідомлень: 31

2013-12-05 19:52  
Сендлер довів, що він не лише комедійний актор.
vovang6 
Свій


З нами з: 27.08.12
Востаннє: 04.12.16
Повідомлень: 60

2015-05-16 19:56  
дайте закачати...!
Ваш часовий пояс: GMT + 2 Години

Нова тема   Відповісти