Завантажити та скачати торренти українською


Ірландець / Kill the Irishman (2011) 720р Ukr/Eng | Sub Eng

Нові коментарі

Нова тема   Відповісти
Автор Повідомлення
pyatachok 
Координатор літератури


З нами з: 30.01.10
Востаннє: 06.12.16
Повідомлень: 1337

2012-03-10 22:42  
Ірландець / Kill the Irishman (2011) 720р Ukr/Eng | Sub Eng




Жанр: кримінальний, трилер, біографічний
Країна: США



Кіностудія / кінокомпанія: Anchor Bay Films, Code Entertainment, Dundee Entertainment
Режисер: Джонатан Хенслиі (Jonathan Hensleigh)
Актори: Рей Стівенсон (Ray Stevenson), Вінсент Донофріо (Vincent D'Onofrio), Вел Кілмер (Val Kilmer), Крістофер Вокен (Christopher Walken), Тоні Дарров (Tony Darrow) та інші

Сюжет:
Денні Грін — людина, в якій ірландський войовничий дух змішався з гордістю, жорстокістю, амбіціями і принципами, завдяки чому він став головною фігурою мафіозної війни 1970-х років. Війни, що назавжди змінила структуру організованої злочинності в Америці.


Увага!
Рейтинг (в США): R

Підліткам до 17 років дозволений перегляд тільки у супроводі одного з батьків, або їхнього законного представника.

Тривалість: 01:46:36
Якість:
Відео:
кодек:
розмір кадру: 1280х720
бітрейт: 7 000 кб/с

Аудіо # 1:
мова: українська
переклад: двоголосий закадровий
кодек: 5.1
бітрейт: 384 кб/с

Аудіо # 2:
мова: англійська
переклад: оригінал
кодек: 5.1
бітрейт: 1510 кб/с

Джерело озвучення:


Субтитри:
мова: англійська
тип: програмні (м'які)
формат: *.srt

Скріншоти:





MediaInfo

Код:
General
Unique ID                        : 226088536016119482776887009061285660211 (0xAA171172E886F9179D67697591DC0633)
Complete name                    : D:\Kill the Irishman (2011)[ukr,eng] 720p.mkv
Format                           : Matroska
Format version                   : Version 2
File size                        : 6.62 GiB
Duration                         : 1h 46mn
Overall bit rate                 : 8 888 Kbps
Movie name                       : Ірландець / Kill the Irishman (2011)
Encoded date                     : UTC 2012-03-10 20:14:04
Writing application              : mkvmerge v4.9.1 ('Ich will')
Writing library                  : libebml v1.2.1 + libmatroska v1.1.1

Video
ID                               : 1
Format                           : AVC
Format/Info                      : Advanced Video Codec
Format profile                   : [email protected]
Format settings, CABAC           : Yes
Format settings, ReFrames        : 9 frames
Codec ID                         : V_MPEG4/ISO/AVC
Duration                         : 1h 46mn
Bit rate                         : 7 000 Kbps
Width                            : 1 280 pixels
Height                           : 720 pixels
Display aspect ratio             : 16:9
Frame rate                       : 23.976 fps
Color space                      : YUV
Chroma subsampling               : 4:2:0
Bit depth                        : 8 bits
Scan type                        : Progressive
Bits/(Pixel*Frame)               : 0.317
Stream size                      : 5.08 GiB (77%)
Title                            : Kill the Irishman
Writing library                  : core 120 r2164 da19765
Encoding settings                : cabac=1 / ref=9 / deblock=1:-3:-3 / analyse=0x3:0x113 / me=umh / subme=10 / psy=1 / psy_rd=1.00:0.05 / mixed_ref=1 / me_range=32 / chroma_me=1 / trellis=2 / 8x8dct=1 / cqm=0 / deadzone=21,11 / fast_pskip=0 / chroma_qp_offset=-3 / threads=12 / sliced_threads=0 / nr=0 / decimate=0 / interlaced=0 / bluray_compat=0 / constrained_intra=0 / bframes=7 / b_pyramid=2 / b_adapt=2 / b_bias=0 / direct=3 / weightb=1 / open_gop=0 / weightp=2 / keyint=240 / keyint_min=23 / scenecut=40 / intra_refresh=0 / rc_lookahead=40 / rc=2pass / mbtree=0 / bitrate=7000 / ratetol=1.0 / qcomp=0.60 / qpmin=0 / qpmax=69 / qpstep=4 / cplxblur=20.0 / qblur=0.5 / vbv_maxrate=50000 / vbv_bufsize=62500 / nal_hrd=none / ip_ratio=1.40 / pb_ratio=1.30 / aq=1:0.70
Language                         : English
Default                          : Yes
Forced                           : No

Audio #1
ID                               : 2
Format                           : AC-3
Format/Info                      : Audio Coding 3
Mode extension                   : CM (complete main)
Codec ID                         : A_AC3
Duration                         : 1h 46mn
Bit rate mode                    : Constant
Bit rate                         : 384 Kbps
Channel(s)                       : 6 channels
Channel positions                : Front: L C R, Side: L R, LFE
Sampling rate                    : 48.0 KHz
Bit depth                        : 16 bits
Compression mode                 : Lossy
Stream size                      : 293 MiB (4%)
Language                         : Ukrainian
Default                          : Yes
Forced                           : No

Audio #2
ID                               : 3
Format                           :
Format/Info                      : Digital Theater Systems
Codec ID                         : A_DTS
Duration                         : 1h 46mn
Bit rate mode                    : Constant
Bit rate                         : 1 510 Kbps
Channel(s)                       : 6 channels
Channel positions                : Front: L C R, Side: L R, LFE
Sampling rate                    : 48.0 KHz
Bit depth                        : 16 bits
Compression mode                 : Lossy
Delay relative to video          : 11ms
Stream size                      : 1.12 GiB (17%)
Title                            : Оригинал
Language                         : English
Default                          : No
Forced                           : No

Text
ID                               : 4
Format                           : UTF-8
Codec ID                         : S_TEXT/UTF8
Codec ID/Info                    : UTF-8 Plain Text
Language                         : English
Default                          : No
Forced                           : No




За запис звуку подяка MAKAPOHHIK
За створення 6 канальної доріжки подяка Lan
За україномовний постер подяка Zetonik-z



Джерело: &
Особиста оцінка: не дивився


 Трекер:    Зареєстрований   

Завантажити / скачати фільм українською



відео для новачків



 Зареєстрований:   2012-03-10 23:11
 Розмір:   6.62 GB 
 Оцінка фільму:   9.8/10 (Голосів: 16)
   
Інші релізи
   Ірландець / Kill the Irishman (2011) 720р-mini Ukr/Eng AngryBirdsUA  1 / 0   2.15 GB   2012-03-30 11:48 
   Ірландець / Kill the Irishman (2011) Ukr/Eng | Sub Eng Zetonik-z  6 / 0   2.04 GB   2011-12-30 10:31 
pyatachok 
Координатор літератури


З нами з: 30.01.10
Востаннє: 06.12.16
Повідомлень: 1337

2012-03-10 22:45  
Швидкість віддачі ~ 350 кілобайт/с (і то якщо попутний вітер), тому буде трішки довгоHappy
leroykendall 
Модератор HD


З нами з: 03.01.11
Востаннє: 20.11.16
Повідомлень: 749

2012-03-11 00:13  
pyatachok
Так як ви з проекту Гуртом, то прохання наступного разу підписувати файли згідно правил: http://toloka.to/t3644

pyatachok 
Координатор літератури


З нами з: 30.01.10
Востаннє: 06.12.16
Повідомлень: 1337

2012-03-11 00:15  
leroykendall
Я не з "Відео Гуртом", але якщо треба то ок.Happy
leroykendall написано:
http://toloka.to/t3644

"Такої теми не існує"

13Mark 
Поважний учасник


З нами з: 25.04.08
Востаннє: 05.12.16
Повідомлень: 179

2012-03-11 02:11  
Чекав набагато більшого від цього фільм, а залишився в результаті не задоволений.
Ваш часовий пояс: GMT + 2 Години

Нова тема   Відповісти