Завантажити та скачати торренти українською


Американська історія Х / American history X (1998) Remux UKR/Eng | Sub Ukr/Eng

Нові коментарі

Нова тема   Відповісти
Автор Повідомлення
DiGen 
Модератор HD та координатор Команди HD
Модератор HD та координатор Команди HD


З нами з: 12.11.09
Востаннє: 24.06.13
Повідомлень: 1452

2012-03-09 00:23  
Американська історія Х / American history X (1998) Remux UKR/Eng | Sub Ukr/Eng

Аналог

Жанр: драма, кримінальний
Країна: США

Top 250: #36

Кіностудія / кінокомпанія: New Line Cinema
Режисер: Тоні Кей
Актори: Едвард Нортон, Едвард Фарлонг, Файруза Балк, Беверлі Д'Анджело, Елліотт Гулд, Дженніфер Лієн

Сюжет:
Лідер місцевої банди скінхедів Дерек Він'ярд міцно утримує авторитет в своєму районі. Переконаний у своїй правоті, він нещадно розправляється з тими, хто має не білий колір шкіри. Незалежність і сміливість Дерека викликають захоплення у його молодшого брата Дені, який вже теж зробив свій вибір.
Але звіряче вбивство двох чорношкірих хлопців, здійснене Дереком, розділяє дороги братів: Дерек опиняється у в'язниці, де існує свій розклад сил, а Дені на волі успішно продовжує справу брата. До тих пір, поки їх шляхи не перетнулися знову ...


Тривалість: 01:58:53
Якість: (джерело Blu-ray)
Відео:
кодек: х.264
розмір кадру: 1920 x 1080
бітрейт: 26.5 Mбіт/сек

Аудіо #1:
мова: Українська
переклад: багатоголосий закадровий
кодек: 5.1
бітрейт: 1510 кбіт/сек

Українська доріжка отримана шляхом розкладання оригінальної () та заміни центру нестисненим звуком (WAV), що надала студія.

Аудіо #2:
мова: англійська
переклад: оригінал
кодек: 5.1
бітрейт: 1510 кбіт/сек

Субтитри #1:
мова: українська
тип: програмні (м'які)
формат: *.srt
автор: aimtoknow (аматорський переклад з російської)

Субтитри #2:
мова: англійська
тип: програмні (м'які)
формат: *.srt
MediaInfo:

General
Unique ID : 247129725910891798218525356850177586043 (0xB9EB7434A019501583C7ED7F600F337B)
Format : Matroska
File size : 25.0 GiB
Duration : 1h 58mn
Overall bit rate : 30.1 Mbps
Encoded date : UTC 2012-03-08 00:24:44
Writing application : mkvmerge v5.3.0 ('I could have danced') built on Feb 9 2012 10:38:07
Writing library : libebml v1.2.3 + libmatroska v1.3.0
Video #1
ID : 1
Format : VC-1
Format profile : [email protected]
Codec ID : WVC1
Codec ID/Hint : Microsoft
Duration : 1h 58mn
Bit rate : 26.5 Mbps
Width : 1 920 pixels
Height : 1 080 pixels
Display aspect ratio : 16:9
Frame rate : 23.976 fps
Chroma subsampling : 4:2:0
Bit depth : 8 bits
Scan type : Progressive
Compression mode : Lossy
Bits/(Pixel*Frame) : 0.533
Stream size : 22.0 GiB (88%)
Title : American History X (1998) 1080p.Remux.Tr_01.Video.[HURTOM] by DiGen
Language : English
Audio #2
ID : 2
Format :
Format/Info : Digital Theater Systems
Codec ID : A_DTS
Duration : 1h 58mn
Bit rate mode : Constant
Bit rate : 1 510 Kbps
Channel(s) : 6 channels
Channel positions : Front: L C R, Side: L R, LFE
Sampling rate : 48.0 KHz
Bit depth : 24 bits
Compression mode : Lossy
Stream size : 1.25 GiB (5%)
Title : American History X (1998) 1080p.Tr_02.A-UKR[DTS_5.1-1536,TO'Cikava Ideya'].[HURTOM] by Hurtom.
Language : Ukrainian
Audio #3
ID : 3
Format :
Format/Info : Digital Theater Systems
Codec ID : A_DTS
Duration : 1h 58mn
Bit rate mode : Constant
Bit rate : 1 510 Kbps
Channel(s) : 6 channels
Channel positions : Front: L C R, Side: L R, LFE
Sampling rate : 48.0 KHz
Bit depth : 24 bits
Compression mode : Lossy
Stream size : 1.25 GiB (5%)
Title : American History X (1998) 1080p.Tr_03.A-Eng[DTS_5.1-1536].[HURTOM] by DiGen.
Language : English
Text #4
ID : 4
Format : UTF-8
Codec ID : S_TEXT/UTF8
Codec ID/Info : UTF-8 Plain Text
Title : American History X (1998) 1080p.Tr_04.Sub-UKR.[HURTOM] by aimtoknow.srt
Language : Ukrainian
Text #5
ID : 5
Format : UTF-8
Codec ID : S_TEXT/UTF8
Codec ID/Info : UTF-8 Plain Text
Title : American History X (1998) 1080p.Tr_05.Sub-Eng.[HURTOM] by DiGen.srt
Language : English
Світлини:





Переклад і озвучування здійснено в рамках сервісу "Озвучення"
медіапартнер


Подяка bilenkuyboy за українізований постер



Джерело: Десь на просторах нету
Особиста оцінка: 10 - без зайвих вагань рекомендую всім!

Не забуваємо клацати "Дякую"
Мої наступні релізи:
HD 1080p/720p:

01.
02. Льодовиковий період 2/Ice Age 2 720p (якщо буде укр. доріжка)
03. Робокоп 1,2,3 (1987,1990,1993) 720p
04. Люди в чорному 2/Men in Black 2 720/1080p
05. Shichinin no samura (1954) 720р
06. Autumn in New York 720р
08.
09. Some Like It Hot (1959) Blu-Ray - в процесі
10. Смертельні перегони 2000року (1975) 1080р - готове відео, лише треба саби
11. Смертельні перегони 1,2/Death Race 1,2(2008/2010) 720p
12. Святий/The Saint 1080p - готовий, лише треба звук підігнати та оформити
13. Boondock Saints.1999.BD.Rip.720p - якщо буде укр.доріжка
14. Boondock Saints II.All Saints Day.BD.Rip.720p - якщо буде укр.доріжка
15. Rain.Man.1988.720p
16. Flashbacks of a Fool (2008) 720p - готовий, лише треба звук підігнати та оформити
17. Миротворець / The Peacemaker (1997) 720р
18. Blind Fury (1989) 1080і - готовий, лише треба звук підігнати та оформити
19. Requiem for a Dream (2000) 720р

:

01. Формула 51/Formula 51
02. Коефіцієнт інтелекту/IQ (1994) - /720p


Золотий реліз (завантажене не впливає на рейтинг)
 Трекер:    Зареєстрований   

Завантажити / скачати фільм українською



відео для новачків



 Зареєстрований:   2012-03-09 00:23
 Розмір:   25 GB 
 Оцінка фільму:   9.1/10 (Голосів: 14)
   
DiGen 
Модератор HD та координатор Команди HD
Модератор HD та координатор Команди HD


З нами з: 12.11.09
Востаннє: 24.06.13
Повідомлень: 1452

2012-03-09 00:26  
720р тут - http://toloka.to/t33959

У форматі 1080p буде або зранку, або ж знову вночі.

fyfufrb 
Свій


З нами з: 07.10.09
Востаннє: 07.12.16
Повідомлень: 93

2012-09-19 17:26  
Можна трошки швидкості ???
Ледве докачав - але це цього варто було - ну чекання
Фільм супер і тд - кінець - ну вам самим судити )))

Ваш часовий пояс: GMT + 2 Години

Нова тема   Відповісти