Завантажити та скачати торренти українською


Вен Вайлдер — король вечірок / Van Wilder / National Lampoon's Van Wilder [Unrated] (2002) 720p Ukr/Eng | Sub Eng

Нові коментарі

Нова тема   Відповісти
Автор Повідомлення
Віктор 
Відео Гуртом - субтитрування
Відео Гуртом - субтитрування


З нами з: 09.01.10
Востаннє: 09.12.16
Повідомлень: 8664

2012-03-08 23:01  
Вен Вайлдер — король вечірок / Van Wilder / National Lampoon's Van Wilder [Unrated] (2002) 720p Ukr/Eng | Sub Eng


Вен Вайлдер — король вечірок / Van Wilder / National Lampoon's Van Wilder [Unrated] (2002) 720p Ukr/Eng | Sub Eng

«The Tradition Continues»


Жанр: комедія, романтичний
Країна: США, Німеччина



Кіностудія / кінокомпанія: Myriad Pictures, In-Motion AG Movie & TV Productions, World Media Fonds V (WMF V)
Режисер: Волт Бекер (Walt Becker)
Композитори: Дейвід Ловренс (David Lawrence)
Актори: Раян Рейнольдс (Ryan Reynolds), Тара Рід (Tara Reid), Тім Метісон (Tim Matheson), Кел Пен (Kal Penn), Тек Голмс (Teck Holmes), Деніел Косґров (Daniel Cosgrove), Деон Річмонд (Deon Richmond), Алекс Барнс (Alex Burns), Емілі Рутерфорд (Emily Rutherfurd), Пол Ґлісон (Paul Gleason), Волт Бекер (Walt Becker) та інші.

Сюжет:
Вен Вайлдер навчається в коледжі шість років, і все ніяк не може отримати диплом. Але зовсім не через те, що він найтупіший учень у групі, а тому що до нестями закоханий у безтурботне студентське життя. Та раптом він дізнається, що батько не має наміру оплачувати тривале навчання свого нащадка, і тепер у нього лише два варіянти: або самостійно заплатити за сьомий рік веселощів, або ... стати, врешті-решт, випускником!
Цікаві факти

Премія каналу «MTV», 2003 рік

Номінації (1):
Чоловічий прорив року (Раян Рейнольдс)

• Бюджет: $6,000,000
MediaInfo

Код:
General
Unique ID                        : 191827301378360006505755979233970231853 (0x90509829C8721487B7B64CE846621A2D)
Complete name                    : D:\HURTOM\Van Wilder (2002) [Ukr, Eng] 720p [Hurtom].mkv
Format                           : Matroska
Format version                   : Version 2
File size                        : 4.24 GiB
Duration                         : 1h 33mn
Overall bit rate                 : 6 461 Kbps
Movie name                       : Van Wilder (2002) [Ukr, Eng] 720p [Hurtom]
Encoded date                     : UTC 2012-03-08 21:31:15
Writing application              : mkvmerge v5.0.1 ('Es ist Sommer') built on Oct  9 2011 11:55:43
Writing library                  : libebml v1.2.2 + libmatroska v1.3.0

Video
ID                               : 1
Format                           : AVC
Format/Info                      : Advanced Video Codec
Format profile                   : [email protected]
Format settings, CABAC           : Yes
Format settings, ReFrames        : 9 frames
Codec ID                         : V_MPEG4/ISO/AVC
Duration                         : 1h 33mn
Bit rate                         : 5 245 Kbps
Width                            : 1 280 pixels
Height                           : 692 pixels
Display aspect ratio             : 1.850
Frame rate                       : 23.976 fps
Color space                      : YUV
Chroma subsampling               : 4:2:0
Bit depth                        : 8 bits
Scan type                        : Progressive
Bits/(Pixel*Frame)               : 0.247
Stream size                      : 3.44 GiB (81%)
Title                            : Van Wilder (2002) [Ukr, Eng] 720p [Hurtom]
Writing library                  : core 106 r1732kMod b20059a
Encoding settings                : cabac=1 / ref=9 / deblock=1:-3:-2 / analyse=0x3:0x113 / me=umh / subme=10 / psy=1 / psy_rd=1.05:0.15 / mixed_ref=1 / me_range=32 / chroma_me=1 / trellis=2 / 8x8dct=1 / cqm=0 / deadzone=21,11 / fast_pskip=1 / chroma_qp_offset=-3 / threads=3 / sliced_threads=0 / nr=0 / decimate=1 / interlaced=0 / constrained_intra=0 / bframes=8 / b_pyramid=2 / b_adapt=2 / b_bias=0 / direct=1 / weightb=1 / open_gop=0 / weightp=2 / keyint=250 / keyint_min=23 / scenecut=40 / intra_refresh=0 / rc_lookahead=60 / rc=crf / mbtree=0 / crf=18.2000 / qcomp=0.65 / qpmin=10 / qpmax=51 / qpstep=4 / vbv_maxrate=50000 / vbv_bufsize=62500 / crf_max=0.0 / ip_ratio=1.30 / pb_ratio=1.20 / aq=1:1.05 / nal_hrd=none
Language                         : English
Default                          : Yes
Forced                           : No
Matrix coefficients              : BT.709-5, BT.1361, IEC 61966-2-4 709, SMPTE RP177

Audio #1
ID                               : 2
Format                           : AC-3
Format/Info                      : Audio Coding 3
Mode extension                   : CM (complete main)
Codec ID                         : A_AC3
Duration                         : 1h 33mn
Bit rate mode                    : Constant
Bit rate                         : 448 Kbps
Channel(s)                       : 6 channels
Channel positions                : Front: L C R, Side: L R, LFE
Sampling rate                    : 48.0 KHz
Bit depth                        : 16 bits
Compression mode                 : Lossy
Stream size                      : 301 MiB (7%)
Title                            : 5.1 @ 448 kbps - двоголосий закадровий запис звуку з Нового Каналу
Language                         : Ukrainian
Default                          : Yes
Forced                           : No

Audio #2
ID                               : 3
Format                           : AC-3
Format/Info                      : Audio Coding 3
Mode extension                   : CM (complete main)
Codec ID                         : A_AC3
Duration                         : 1h 33mn
Bit rate mode                    : Constant
Bit rate                         : 640 Kbps
Channel(s)                       : 6 channels
Channel positions                : Front: L C R, Side: L R, LFE
Sampling rate                    : 48.0 KHz
Bit depth                        : 16 bits
Compression mode                 : Lossy
Stream size                      : 430 MiB (10%)
Title                            : 5.1 @ 640 kbps
Language                         : English
Default                          : No
Forced                           : No

Text #1
ID                               : 4
Format                           : UTF-8
Codec ID                         : S_TEXT/UTF8
Codec ID/Info                    : UTF-8 Plain Text
Title                            : До місцинки без перекладу
Language                         : Ukrainian
Default                          : Yes
Forced                           : No

Text #2
ID                               : 5
Format                           : UTF-8
Codec ID                         : S_TEXT/UTF8
Codec ID/Info                    : UTF-8 Plain Text
Language                         : English
Default                          : No
Forced                           : No

Menu
00:00:00.000                     : en:Assistant Auditions
00:06:35.395                     : en:Foreign Option
00:09:31.028                     : en:Hot New Story
00:15:42.358                     : en:Extension Program
00:18:56.969                     : en:Topless Tutor
00:24:56.161                     : en:Roller Party
00:29:00.739                     : en:Spreading the News
00:34:35.823                     : en:Ice Princess
00:41:14.138                     : en:Dinner Invite
00:45:24.096                     : en:Fooling Around
00:49:04.900                     : en:All Beef Franks
00:53:26.286                     : en:Save the Swim Team
01:03:08.367                     : en:Party Crashers
01:08:04.830                     : en:Wilder Days
01:12:39.438                     : en:Van Appeal
01:21:42.105                     : en:Van the Man
Наявні релізи

720p Ukr/Eng | Sub Eng (4.24 GB) - двоголосий закадровий запис звуку з Нового каналу
Ukr/Eng | Sub Eng (5.41 GB (у складі трилогії) - двоголосий закадровий запис звуку з Нового каналу

Ролі озвучили: Микола Карцев

У чому полягає різниця між звичайною і Unrated версією можна подивитись тут —
http://www.movie-censorship.com/report.php?ID=4129716



Тривалість: 01:33:52
Якість: 720p (ZtaZ55RuS)
Відео:
кодек:
розмір кадру: 1280x692 (1.85:1)
бітрейт: 5245 кб/с

Аудіо # 1:
мова: українська
переклад: двоголосий закадровий запис звуку з Нового каналу | усі чоловічі ролі озвучив: Микола Карцев
кодек: 5.1
бітрейт: 448 кб/с

Аудіо # 2:
мова: анґлійська
переклад: ориґінал
кодек: 5.1
бітрейт: 640 кб/с

Субтитри # 1:
мова: українська (на місцинку без перекладу 8 фраз)
тип: програмні (м'які)
формат: *.srt

Субтитри # 2:
мова: анґлійська
тип: програмні (м'які)
формат: *.srt

Скріншоти :




За зведення української доріжки подяка MutuLI,
за запис звуку з ТБ подяка xslim, dvorsky, DareDevil96,
окрема подяка robotron005


Джерело: &
Особиста оцінка: 8

Ще була трансляція по К1 з іншою озвучкою, але ніхто не записав.


Срібний реліз (на рейтинг впливає 50% завантаженого)
 Трекер:    Зареєстрований   

Завантажити / скачати фільм українською



відео для новачків



 Зареєстрований:   2012-03-09 00:11
 Розмір:   4.24 GB 
 Оцінка фільму:   6.5/10 (Голосів: 11)
   
robotron005 
Відео Гуртом - фільмокрай
Відео Гуртом - фільмокрай


З нами з: 29.01.09
Востаннє: 09.12.16
Повідомлень: 2989

2012-03-08 23:26  
Це то шо зараз по Тонісу? ... Карцев 100%
Віктор 
Відео Гуртом - субтитрування
Відео Гуртом - субтитрування


З нами з: 09.01.10
Востаннє: 09.12.16
Повідомлень: 8664

2012-03-08 23:55  
robotron005 написано:
Це то шо зараз по Тонісу? ... Карцев 100%

Дякую. Хотів було назад в майбутнє послухати для певності.)

bot 
робот


З нами з: 30.09.07
Востаннє: 26.05.05
Повідомлень: 16045

2012-03-09 00:11  
Тему перенесено з Анонси релізів від Відео Гуртом до форуму Фільми в HD


w2958l

The_Marlboro 
Відео Гуртом - субтитрування
Відео Гуртом - субтитрування


З нами з: 23.05.10
Востаннє: 09.12.16
Повідомлень: 2854

2012-03-09 18:31  
Круте кіно, але як на мене найслабша частина триології.
Ваш часовий пояс: GMT + 2 Години

Нова тема   Відповісти