Завантажити та скачати торренти українською


Дівчина з тату дракона / The Girl with the Dragon Tattoo (2011) AVC

Нові коментарі

Нова тема   Відповісти
Автор Повідомлення
Drool 
VIP


З нами з: 17.04.10
Востаннє: 10.12.16
Повідомлень: 1270

2012-03-08 02:10  
Дівчина з тату дракона / The Girl with the Dragon Tattoo (2011) AVC

Жанр: трилер, драма, кримінал, детектив
Країна: США, Швеція, Велика Британія, Німеччина



Кіностудія / кінокомпанія: Columbia Pictures, Metro-Goldwyn-Mayer, Scott Rudin Productions, Yellow Bird Films, Film Rites, Ground Control; мейджор – Buena Vista Sony Pictures Releasing (BVSPR)
Режисер: Девід Фінчер
Актори: Деніел Крейґ, Руні Мара, Крістофер Пламмер, Стелан Скарсгард, Робін Райт

Сюжет:
Сорок років тому Харрієт Вангер безслідно зникла на острові, що належить могутньому клану Вангер. Її тіло так і не було знайдено, але її дядько переконаний, що це вбивство і що вбивця є членом його власної, тісно згуртованої і неблагополучної сім'ї. Він наймає журналіста Мікаеля Блумквіста і татуйовану хакершу Лісбет Саландер для проведення розслідування.


Тривалість: 02:38:11
Якість:
Відео:
кодек:
розмір кадру: 1056x440
бітрейт: 1526 кб/с

Аудіо:
мова: українська
переклад: професійний дубльований
кодек: 5.1
бітрейт: 448 кб/с
Джерело озвучення:
Звіт MediaInfo
General
Unique ID : 254488691570812723950509939248592244985 (0xBF74BD399DF36653BCFA85206056D0F9)
Complete name : /mnt/disk_d/Video/Films/The.Girl.with.the.Dragon.Tattoo.2011.Ukr.AVC.mkv
Format : Matroska
File size : 2.18 GiB
Duration : 2h 38mn
Overall bit rate : 1 975 Kbps
Movie name : Дівчина з тату дракона / The Girl with the Dragon Tattoo (2011) UKR | HQ-ViDEO
Encoded date : UTC 2012-03-07 08:36:44
Writing application : mkvmerge v3.4.0 ('Rapunzel') збірка від May 15 2010 09:38:20
Writing library : libebml v0.8.0 + libmatroska v0.9.0

Video
ID : 1
Format : AVC
Format/Info : Advanced Video Codec
Format profile : [email protected]
Format settings, CABAC : Yes
Format settings, ReFrames : 7 frames
Codec ID : V_MPEG4/ISO/AVC
Duration : 2h 38mn
Bit rate : 1 526 Kbps
Width : 1 056 pixels
Height : 440 pixels
Display aspect ratio : 2.40:1
Frame rate : 23.976 fps
Color space : YUV
Chroma subsampling : 4:2:0
Bit depth : 8 bits
Scan type : Progressive
Bits/(Pixel*Frame) : 0.137
Stream size : 1.64 GiB (75%)
Title : The Girl with the Dragon Tattoo (Vaippp)
Writing library : core 120 r2146kMod bcd41db
Encoding settings : cabac=1 / ref=7 / deblock=1:-2:-2 / analyse=0x3:0x113 / me=umh / subme=10 / psy=1 / fade_compensate=0.00 / psy_rd=1.05:0.00 / mixed_ref=1 / me_range=24 / chroma_me=1 / trellis=2 / 8x8dct=1 / cqm=0 / deadzone=21,11 / fast_pskip=0 / chroma_qp_offset=-2 / threads=12 / sliced_threads=0 / nr=0 / decimate=0 / interlaced=0 / bluray_compat=0 / constrained_intra=0 / bframes=13 / b_pyramid=2 / b_adapt=2 / b_bias=0 / direct=3 / weightb=1 / open_gop=0 / weightp=2 / keyint=240 / keyint_min=22 / scenecut=40 / intra_refresh=0 / rc_lookahead=40 / rc=2pass / mbtree=0 / bitrate=1526 / ratetol=1.0 / qcomp=0.65 / qpmin=0 / qpmax=69 / qpstep=4 / cplxblur=20.0 / qblur=0.5 / vbv_maxrate=50000 / vbv_bufsize=62500 / nal_hrd=none / ip_ratio=1.40 / pb_ratio=1.45 / aq=3:1.00 / zones=220097,227495,q=35
Matrix coefficients : BT.709-5, BT.1361, IEC 61966-2-4 709, SMPTE RP177

Audio
ID : 2
Format : AC-3
Format/Info : Audio Coding 3
Mode extension : CM (complete main)
Codec ID : A_AC3
Duration : 2h 38mn
Bit rate mode : Constant
Bit rate : 448 Kbps
Channel(s) : 6 channels
Channel positions : Front: L C R, Side: L R, LFE
Sampling rate : 48.0 KHz
Bit depth : 16 bits
Compression mode : Lossy
Stream size : 507 MiB (23%)
Title : Ukrainian
Language : Ukrainian
Скріншоти





Джерело:
Особиста оцінка: 9 - давно не бачив настільки якісне кіно


 Трекер:    Зареєстрований   

Завантажити / скачати фільм українською



відео для новачків



 Зареєстрований:   2012-03-08 02:10
 Розмір:   2.18 GB 
 Оцінка фільму:   9.9/10 (Голосів: 17)
   
braveboy 
Відео Гуртом - команда HD
Відео Гуртом - команда HD


З нами з: 15.06.10
Востаннє: 29.10.16
Повідомлень: 958

2012-03-08 06:20  
Drool написано:
Джерело озвучення:

DVD

Drool 
VIP


З нами з: 17.04.10
Востаннє: 10.12.16
Повідомлень: 1270

2012-03-08 12:14  
braveboy написано:

Drool написано:
Джерело озвучення:

DVD

Поверніть джерело звуку блюрей - ось хеш-сумма блюрей-диска з українською доріжкою (Dolby Digital Audio Ukrainian 448 kbps 5.1 / 48 kHz / 448 kbps): 0819B394F6724F27982BA8A9C559CE95DD4B2A58

eXteSy- 
VIP


З нами з: 06.04.09
Востаннє: 10.12.16
Повідомлень: 1456

2013-11-14 23:04  
Вдалий римейк. Однак все ж таки у шведському оригіналі більше напруженості і драматизму. Тут переживання персонажів подані якось надто спрощено.
8/10

Ваш часовий пояс: GMT + 2 Години

Нова тема   Відповісти