Завантажити та скачати торренти українською


Дівчина з тату дракона / The Girl with the Dragon Tattoo (2011) Remux 1080p Ukr/Eng | Sub Eng

Нові коментарі

Нова тема   Відповісти
Останній раз роздавалося leroykendall (2016-11-20)
Автор Повідомлення
leroykendall 
Модератор HD


З нами з: 03.01.11
Востаннє: 20.11.16
Повідомлень: 749

2012-03-07 23:41  
Дівчина з тату дракона / The Girl with the Dragon Tattoo (2011) Remux 1080p Ukr/Eng | Sub Eng

Дівчина з тату дракона / The Girl with the Dragon Tattoo (2011) Remux 1080p Ukr/Eng | Sub Eng

«What is hidden in snow, comes forth in the thaw.»


Жанр: трилер, драма, кримінал, детектив
Країна: США, Німеччина, Швеція, Великобританія




Кіностудія / кінокомпанія: Columbia Pictures, Metro-Goldwyn-Mayer, Scott Rudin Productions
Режисер: Девід Фінчер (David Fincher)
Актори: Деніел Крейг (Daniel Craig), Руні Мара (Rooney Mara), Стеллан Скарсгард (Stellan Skarsgård), Робін Райт (Robin Wright), Крістофер Пламмер (Christopher Plummer)

Сюжет:
Сорок років тому Харрієт Вангер безслідно зникла на острові, що належить могутньому клану Вангер. Її тіло так і не було знайдено, але її дядько переконаний, що це вбивство і що вбивця є членом його власної, тісно згуртованою і неблагополучної сім'ї. Він наймає опального журналіста Мікаеля Блумквіста та татуйовану хакершу Лісбет Саландер для проведення розслідування.


Тривалість: 02:38:08
Якість: Remux 1080p
Відео:
кодек:
розмір кадру: 1920 x 1080
бітрейт: 31479 кб/с

Аудіо # 1:
мова: українська
переклад: професійний дубльований
кодек: 5.1
бітрейт: 640 кб/с

Аудіо # 2:
мова: англійська
переклад: оригінал
кодек: -HD MA 5.1
бітрейт: 2344 кб/с

Аудіо # 3:
мова: англійська (Коментарі режисера Девіда Фінчера)
кодек: 2.0
бітрейт: 192 кб/с

Джерело озвучення:


Субтитри # 1:
мова: англійська
тип: програмні (м'які)
формат: *.srt

Субтитри # 2:
мова: англійська
тип: пререндерні
формат: pgs

Субтитри # 3:
мова: англійська
тип: пререндерні
формат: SDH pgs

Субтитри # 4:
мова: англійська (Коментарі режисера Девіда Фінчера)
тип: пререндерні
формат: pgs

Збережені оригінальні чаптери як на Blu-ray.


MediaInfo
Код:
General
Complete name                    : V:\The Girl with the Dragon Tattoo (2011) [Ukr, Eng] Remux 1080p [Hurtom] by leroykendall.mkv
Format                           : Matroska
File size                        : 38.2 GiB
Duration                         : 2h 38mn
Overall bit rate                 : 34.6 Mbps
Movie name                       : The Girl with the Dragon Tattoo (2011) [Ukr, Eng] Remux 1080p [Hurtom] by leroykendall
Encoded date                     : UTC 2013-05-26 11:00:11
Writing application              : mkvmerge v6.2.0 ('Promised Land') built on Apr 28 2013 12:22:01
Writing library                  : libebml v1.3.0 + libmatroska v1.4.0

Video
ID                               : 1
Format                           : AVC
Format/Info                      : Advanced Video Codec
Format profile                   : [email protected]
Format settings, CABAC           : Yes
Format settings, ReFrames        : 4 frames
Muxing mode                      : Container [email protected]
Codec ID                         : V_MPEG4/ISO/AVC
Duration                         : 2h 37mn
Width                            : 1 920 pixels
Height                           : 1 080 pixels
Display aspect ratio             : 16:9
Frame rate                       : 23.976 fps
Resolution                       : 24 bits
Colorimetry                      : 4:2:0
Scan type                        : Progressive
Title                            : The Girl with the Dragon Tattoo (2011) Remux 1080p [Hurtom] - 31479 kbps

Audio #1
ID                               : 2
Format                           : AC-3
Format/Info                      : Audio Coding 3
Codec ID                         : A_AC3
Duration                         : 2h 38mn
Bit rate mode                    : Constant
Bit rate                         : 640 Kbps
Channel(s)                       : 6 channels
Channel positions                : Front: L C R, Surround: L R, LFE
Sampling rate                    : 48.0 KHz
Stream size                      : 724 MiB (2%)
Title                            : 5.1 @ 640 кб/с - дубльований
Language                         : Ukrainian

Audio #2
ID                               : 3
Format                           :
Format/Info                      : Digital Theater Systems
Format profile                   : MA
Codec ID                         : A_DTS
Duration                         : 2h 38mn
Bit rate mode                    : Variable
Channel(s)                       : 6 channels
Channel positions                : Front: L C R, Surround: L R, LFE
Sampling rate                    : 48.0 KHz
Resolution                       : 16 bits
Title                            : -HD MA 5.1 @ 2344 kbps

Audio #3
ID                               : 4
Format                           : AC-3
Format/Info                      : Audio Coding 3
Format profile                   : Dolby Digital
Codec ID                         : A_AC3
Duration                         : 2h 38mn
Bit rate mode                    : Constant
Bit rate                         : 192 Kbps
Channel(s)                       : 2 channels
Channel positions                : L R
Sampling rate                    : 48.0 KHz
Stream size                      : 217 MiB (1%)
Title                            : Commentary with Director David Fincher

Text #1
ID                               : 5
Format                           : UTF-8
Codec ID                         : S_TEXT/UTF8
Codec ID/Info                    : UTF-8 Plain Text
Title                            : srt

Text #2
ID                               : 6
Format                           : PGS
Codec ID                         : S_HDMV/PGS
Codec ID/Info                    : The same subtitle format used on BDs/HD-DVDs
Title                            : pgs

Text #3
ID                               : 7
Format                           : PGS
Codec ID                         : S_HDMV/PGS
Codec ID/Info                    : The same subtitle format used on BDs/HD-DVDs
Title                            : SDH pgs

Text #4
ID                               : 8
Format                           : PGS
Codec ID                         : S_HDMV/PGS
Codec ID/Info                    : The same subtitle format used on BDs/HD-DVDs
Title                            : pgs - Commentary with Director David Fincher

Menu
00:00:00.000                     : en:Chapter 1
00:09:53.885                     : en:Chapter 2
00:22:05.699                     : en:Chapter 3
00:28:24.786                     : en:Chapter 4
00:38:09.746                     : en:Chapter 5
00:48:00.920                     : en:Chapter 6
00:55:07.346                     : en:Chapter 7
01:01:06.204                     : en:Chapter 8
01:09:22.033                     : en:Chapter 9
01:16:12.860                     : en:Chapter 10
01:23:27.711                     : en:Chapter 11
01:32:49.731                     : en:Chapter 12
01:41:35.006                     : en:Chapter 13
01:58:54.210                     : en:Chapter 14
02:14:42.533                     : en:Chapter 15
02:23:15.837                     : en:Chapter 16
Скріншоти:





Джерело:
Особиста оцінка: 9 - давно не бачив настільки якісне кіно


Золотий реліз (завантажене не впливає на рейтинг)
 Трекер:    Зареєстрований   

Завантажити / скачати фільм українською



відео для новачків



 Зареєстрований:   2013-05-28 19:33
 Розмір:   38.2 GB 
 Оцінка фільму:   9.9/10 (Голосів: 12)
   
Dim-ON 
VIP


З нами з: 02.06.10
Востаннє: 05.12.16
Повідомлень: 431

2012-03-07 23:59  
Дякую за реліз.
До речі, на «блакитній птасі» блюрик перезібраний з оригінального, тому українська доріжка з DVD.

leroykendall 
Модератор HD


З нами з: 03.01.11
Востаннє: 20.11.16
Повідомлень: 749

2012-03-08 00:46  
Dim-ON написано:
До речі, на «блакитній птасі» блюрик перезібраний з оригінального, тому українська доріжка з DVD.

Оце так так. А я думав що там справжній БлюРей. Дякую за інфо. Змінив на ДВД.

Віктор 
Відео Гуртом - субтитрування
Відео Гуртом - субтитрування


З нами з: 09.01.10
Востаннє: 05.12.16
Повідомлень: 8663

2012-03-08 01:03  
leroykendall написано:
Оце так так. А я думав що там справжній БлюРей. Дякую за інфо. Змінив на ДВД.


Завжди кажу перевіряйте інформацію, тим паче там рідко пишуть звідки звук.

leroykendall 
Модератор HD


З нами з: 03.01.11
Востаннє: 20.11.16
Повідомлень: 749

2012-03-11 21:35  
Трошки про фільм.
На мій погляд з еротичними сценами і сценами насильства, крові, збочень м'яко кажучи перебор.
Але загалом фільм дуже класно зроблений. Дуже динамічний.
Розслідування показане напружено і цікаво.
Роль дівчини з тату Руні Мара зіграла просто класно і блискуче - заслужена номінація на Оскар.

leroykendall 
Модератор HD


З нами з: 03.01.11
Востаннє: 20.11.16
Повідомлень: 749

2013-05-28 19:36  

Увага!!! Торент оновлено.
Українську доріжку замінено на більш кращу з блю-рей диску.
28.05.2013

nejaka 
Свій


З нами з: 01.02.12
Востаннє: 17.11.16
Повідомлень: 72

2013-05-29 07:29  
фільм класний) шкода сценаристів - стільки перебрали аби лишити головне..)) Фінчер молодець!) Знайшов акторів, які на 100 % відповідають образам із книг..)) Чекаю продовження)!))
Ваш часовий пояс: GMT + 2 Години

Нова тема   Відповісти