Завантажити та скачати торренти українською


Подорож до центру землі / Journey to the Center of the Earth (2008) 720-mini

Нові коментарі

Нова тема   Відповісти
Автор Повідомлення
Drool 
VIP


З нами з: 17.04.10
Востаннє: 06.12.16
Повідомлень: 1264

2012-03-07 18:05  
Подорож до центру землі / Journey to the Center of the Earth (2008) 720-mini

Жанр: фантастика, бойовик, трилер, комедія, пригоди, сімейний
Країна: США



Кіностудія / кінокомпанія: New Line Cinema, Walden Media
Режисер: Ерік Бревіг
Актори: Брендан Фрейзер, Джош Хатчерсон, Аніта Брієм, Сет Маєрс, Жан Мішель Паре, Джейн Вілер, Френк Фонтейн, Джанкарло Кальтабіано, Каньєхтіо Хорн, Гарт Гілкер

Сюжет:
Дивакуватий професор Андерсон, піднятий на сміх колегами за свої ексцентричні теорії, подорожує з племінником по Ісландії, де знаходить печеру, що веде в надра Землі. У надрах перед мандрівниками відкривається дивовижний підземний світ, населений небезпечними і дивними створіннями.


Тривалість: 01:32:34
Якість: 720-mini
Відео:
кодек:
розмір кадру: 1280x712
бітрейт: 2 802 кб/с

Аудіо:
мова: українська
переклад: професійний дубльований
кодек: 5.1
бітрейт: 448 кб/с

Джерело озвучення:
MediaInfo
General
Unique ID : 216662824606851510551971756939479949938 (0xA2FFBDFF2754A148A81E021DDFB52272)
Complete name : /mnt/router/Torrents/Journey.to.the.center.of.Earth.2008..720p.Ukr.mkv
Format : Matroska
File size : 2.10 GiB
Duration : 1h 32mn
Overall bit rate : 3 251 Kbps
Movie name : Подорож до центру Землі / Journey to the center of Earth (2008) 720p Ukr
Encoded date : UTC 2012-03-07 10:07:06
Writing application : mkvmerge v3.4.0 ('Rapunzel') збірка від May 15 2010 09:38:20
Writing library : libebml v0.8.0 + libmatroska v0.9.0

Video
ID : 1
Format : AVC
Format/Info : Advanced Video Codec
Format profile : [email protected]
Format settings, CABAC : Yes
Format settings, ReFrames : 4 frames
Codec ID : V_MPEG4/ISO/AVC
Duration : 1h 32mn
Bit rate : 2 802 Kbps
Width : 1 280 pixels
Height : 712 pixels
Display aspect ratio : 16:9
Frame rate : 23.976 fps
Color space : YUV
Chroma subsampling : 4:2:0
Bit depth : 8 bits
Scan type : Progressive
Bits/(Pixel*Frame) : 0.128
Stream size : 1.77 GiB (84%)
Title : Journey to the center of Earth (2008) 720p
Writing library : core 115 r1937 aa21558
Encoding settings : cabac=1 / ref=3 / deblock=1:-1:-1 / analyse=0x3:0x113 / me=hex / subme=7 / psy=1 / psy_rd=1.00:0.10 / mixed_ref=1 / me_range=16 / chroma_me=1 / trellis=1 / 8x8dct=1 / cqm=0 / deadzone=21,11 / fast_pskip=1 / chroma_qp_offset=-3 / threads=6 / sliced_threads=0 / nr=0 / decimate=1 / interlaced=0 / bluray_compat=0 / constrained_intra=0 / bframes=3 / b_pyramid=2 / b_adapt=1 / b_bias=0 / direct=3 / weightb=1 / open_gop=0 / weightp=2 / keyint=250 / keyint_min=23 / scenecut=40 / intra_refresh=0 / rc_lookahead=40 / rc=2pass / mbtree=1 / bitrate=2802 / ratetol=1.0 / qcomp=0.60 / qpmin=0 / qpmax=69 / qpstep=4 / cplxblur=20.0 / qblur=0.5 / ip_ratio=1.40 / aq=1:1.00

Audio
ID : 2
Format : AC-3
Format/Info : Audio Coding 3
Mode extension : CM (complete main)
Codec ID : A_AC3
Duration : 1h 32mn
Bit rate mode : Constant
Bit rate : 448 Kbps
Channel(s) : 6 channels
Channel positions : Front: L C R, Side: L R, LFE
Sampling rate : 48.0 KHz
Bit depth : 16 bits
Compression mode : Lossy
Stream size : 297 MiB (14%)
Title : Ukrainian
Language : Ukrainian
Скріншоти






Джерело: Інше
Особиста оцінка: 9 - давно не бачив настільки якісне кіно


 Трекер:    Зареєстрований   

Завантажити / скачати фільм українською



відео для новачків



 Зареєстрований:   2012-03-07 18:05
 Розмір:   2.1 GB 
 Оцінка фільму:   9.5/10 (Голосів: 31)
   
Maters 
VIP


З нами з: 27.03.12
Востаннє: 05.12.16
Повідомлень: 1159

2014-07-24 17:43  
Цитата:
9 - давно не бачив настільки якісне кіно

Смієтеся??? Таких казок ще пошукати треба. Якщо дітям дивитися, класу 4-5-го то згодиться, але якщо це якісне кіно то не згоден ні на одну соту відсотка! 3/10

Ваш часовий пояс: GMT + 2 Години

Нова тема   Відповісти