Завантажити та скачати торренти українською


Самі Свої - Дискографія (2 альбоми) (2007-2009) [FLAC] | Folk-Rock

Нові коментарі

Нова тема   Відповісти
Автор Повідомлення
gosha.samovar 
VIP


З нами з: 08.09.10
Востаннє: 09.12.16
Повідомлень: 400

2012-03-06 16:12  
Самі Свої - Дискографія (2 альбоми) (2007-2009) [FLAC] | Folk-Rock

Самі Свої - Дискографія (2 альбоми) (2007-2009) [FLAC] | Folk-Rock


Стиль: Folk Rock
Країна, місто: Україна, Київ
Сайти: Офіційний сайт
Видавець: UKRMUSIC
Пісні:
(2007) Самі Свої - Смарагди
    01. Бурштин (Боже літо)
    02. Стріляли зрештою свої
    03. Казка про Козака та чорта
    04. Біленька хаточка
    05. У передчутті катаклізму
    06. Менталітет
    07. Марічка
    08. Аркан
    09. Святий Миколай
    10. Колесо
    11. Париж вже чекає
    12. Ворождень / Париж вже чекає (bonus track)

Тривалість: 00:49:36
Мова:українська
Аудіо-кодек: FLAC
Бітрейт: 841 кб/с
Виконавці:
    Олег Сухарєв - вокал, акустична гітара;
    Констянтин Сімонов - бас-гітара;
    Віра Бондар - скрипка;
    Юрій Цибулько - сопілка;
    Максим Коханов - електро-гітара;
    Ростислав Ягодка - ударні
EAC Log
Exact Audio Copy V1.0 beta 3 from 29. August 2011

Отчёт EAC об извлечении, выполненном 19. марта 2013, 14:59

Самі Свої / Смарагди

Дисковод: HL-DT-STDVD-RAM GSA-H58N Adapter: 0 ID: 0

Режим чтения : Достоверность
Использование точного потока : Да
Отключение кэша аудио : Да
Использование указателей C2 : Нет

Коррекция смещения при чтении : 102
Способность читать области Lead-in и Lead-out : Нет
Заполнение пропущенных сэмплов тишиной : Да
Удаление блоков с тишиной в начале и конце : Нет
При вычислениях CRC использовались нулевые сэмплы : Да
Интерфейс : Встроенный Win32-интерфейс для Win NT/2000

Выходной формат : Пользовательский кодировщик
Выбранный битрейт : 1024 kBit/s
Качество : Высокий
Добавление ID3-тега : Нет
Утилита сжатия : D:\soft_2\EAC\Exact Audio Copy\Flac\flac.exe
Дополнительные параметры : -V -8 -T "Date=%year%" -T "Genre=%genre%" %source%

TOC извлечённого CD

Трек | Старт | Длительность | Начальный сектор | Конечный сектор
---------------------------------------------------------------------
1 | 0:00.00 | 4:56.18 | 0 | 22217
2 | 4:56.18 | 3:03.69 | 22218 | 36011
3 | 8:00.12 | 3:34.20 | 36012 | 52081
4 | 11:34.32 | 3:41.39 | 52082 | 68695
5 | 15:15.71 | 4:34.22 | 68696 | 89267
6 | 19:50.18 | 1:57.56 | 89268 | 98098
7 | 21:47.74 | 2:53.42 | 98099 | 111115
8 | 24:41.41 | 4:17.06 | 111116 | 130396
9 | 28:58.47 | 2:32.10 | 130397 | 141806
10 | 31:30.57 | 5:42.17 | 141807 | 167473
11 | 37:12.74 | 5:53.23 | 167474 | 193971
12 | 43:06.22 | 6:52.20 | 193972 | 224891

Характеристики диапазона извлечения и сообщения об ошибках

Выбранный диапазон

Имя файла E:\Музіка!\from EAC\Наш Івасюк\Самі Свої - Смарагди.wav

Пиковый уровень 100.0 %
Скорость извлечения 2.6 X
Качество диапазона 100.0 %
CRC теста 0094AB31
CRC копии 0094AB31
Копирование... OK

Ошибок не произошло

AccurateRip: сводка

Трек 1 отсутствует в базе данных
Трек 2 отсутствует в базе данных
Трек 3 отсутствует в базе данных
Трек 4 отсутствует в базе данных
Трек 5 отсутствует в базе данных
Трек 6 отсутствует в базе данных
Трек 7 отсутствует в базе данных
Трек 8 отсутствует в базе данных
Трек 9 отсутствует в базе данных
Трек 10 отсутствует в базе данных
Трек 11 отсутствует в базе данных
Трек 12 отсутствует в базе данных

Ни одного трека нет в базе AccurateRip

Конец отчёта

==== Контрольная сумма отчёта 4B8CACA35895B0852CA36E87A5911440BEEADEE1EEAED3C64E9F3F03CFEF32B9 ====
Спектр


І навіть:



Остаточне зведення та мастеринг: Володимир Кучинський (Мій респект! - gosha.samovar)
(2009) Самі Свої - Чому Вниз?
    01. Дністрянська
    02. Біжучи
    03. Зустріч кандидата в народні депутати з мешканцями села Дружбанівка
    04. Танго
    05. До 75-річчя з Дня народження Віні-Пуха
    06. Бабуся і Онук
    07. 100%-ва Весна
    08. Пісенька про Крадунця
    09. Мить
    10. Слава Україні!
    11. Привіз глину
    12. Чому вниз?

Тривалість: 00:48:03
Мова:українська
Аудіо-кодек: FLAC
Бітрейт:994 кб/с
Виконавці:
    Олег Сухарєв - вокал;
    Віра Бондар - скрипка;
    Володимир Рєзнік - саксофон;
    Юрій Цибулько - сопілка, бек-вокал;
    Максим Коханов - електро-гітара;
    Юрій Гриняк - бас-гітара;
    Ростислав Ягодка - барабани
EAC Log
Exact Audio Copy V1.0 beta 3 from 29. August 2011

Отчёт EAC об извлечении, выполненном 6. марта 2012, 13:03

Самі Свої / Чому Вниз?

Дисковод: PHILIPS SPD2519T Adapter: 2 ID: 0

Режим чтения : Достоверность
Использование точного потока : Да
Отключение кэша аудио : Да
Использование указателей C2 : Нет

Коррекция смещения при чтении : 6
Способность читать области Lead-in и Lead-out : Нет
Заполнение пропущенных сэмплов тишиной : Да
Удаление блоков с тишиной в начале и конце : Нет
При вычислениях CRC использовались нулевые сэмплы : Да
Интерфейс : Встроенный Win32-интерфейс для Win NT/2000

Выходной формат : Пользовательский кодировщик
Выбранный битрейт : 1024 kBit/s
Качество : Высокий
Добавление ID3-тега : Нет
Утилита сжатия : D:\soft_2\EAC\Exact Audio Copy\Flac\flac.exe
Дополнительные параметры : -V -8 -T "Date=%year%" -T "Genre=%genre%" %source%

TOC извлечённого CD

Трек | Старт | Длительность | Начальный сектор | Конечный сектор
---------------------------------------------------------------------
1 | 0:00.00 | 4:20.74 | 0 | 19573
2 | 4:20.74 | 1:52.55 | 19574 | 28028
3 | 6:13.54 | 3:32.56 | 28029 | 43984
4 | 9:46.35 | 2:48.38 | 43985 | 56622
5 | 12:34.73 | 3:10.19 | 56623 | 70891
6 | 15:45.17 | 5:04.09 | 70892 | 93700
7 | 20:49.26 | 4:24.10 | 93701 | 113510
8 | 25:13.36 | 3:29.57 | 113511 | 129242
9 | 28:43.18 | 5:33.60 | 129243 | 154277
10 | 34:17.03 | 4:27.64 | 154278 | 174366
11 | 38:44.67 | 3:43.44 | 174367 | 191135
12 | 42:28.36 | 5:35.07 | 191136 | 216267

Характеристики диапазона извлечения и сообщения об ошибках

Выбранный диапазон

Имя файла E:\Музіка!\from EAC\Самі Свої - Чому Вниз.wav

Пиковый уровень 99.1 %
Скорость извлечения 7.2 X
Качество диапазона 100.0 %
CRC теста 826A41B1
CRC копии 826A41B1
Копирование... OK

Ошибок не произошло

AccurateRip: сводка

Трек 1 отсутствует в базе данных
Трек 2 отсутствует в базе данных
Трек 3 отсутствует в базе данных
Трек 4 отсутствует в базе данных
Трек 5 отсутствует в базе данных
Трек 6 отсутствует в базе данных
Трек 7 отсутствует в базе данных
Трек 8 отсутствует в базе данных
Трек 9 отсутствует в базе данных
Трек 10 отсутствует в базе данных
Трек 11 отсутствует в базе данных
Трек 12 отсутствует в базе данных

Ни одного трека нет в базе AccurateRip

Конец отчёта

==== Контрольная сумма отчёта 7322E59918533F8CF3A2AF2CDE19D19F4AC63D13937FF6DF70E0D0F6FB7D8E82 ====
Спектр
Тривалість: 01:37:40
Мова: українська
Аудіо-кодек: FLAC
Бітрейт: 841-994 кб/с
Джерело: власні ріпи власних CD
Додаткова інформація:
Біографія гурту...
Гурт "Самі свої" був заснований в 1996 році в Києві, з тих пір склад перетерпів багато змін, незмінним є тільки автор (майже всіх) пісень гурту Олег Сухарєв. Склад в якому гурт працює зараз остаточно сформувався на початку 2005 року. "Головна наша рушійна сила — це творча самореалізація учасників колективу. В різні часи в гурті працювали такі, можливо, відомі музиканти як Микола Музальов (далі створив свій гурт-"Поле трав"), Міла Мініна (нині-"Перлина степу"), Андрій Биковець (нині-"Чорна Рада"), Денис Васильєв-лідер-гітара (учився в Юрія Товстогана, Володимира Манілова), Олександр Гросман (учасник багатьох груп, одна з найвідоміших "Игры Ра"),— зізнається Сухарєв.

Гурт "Самі свої" не обмежується у своїй творчості якимось одним напрямком. Найбільш притаманні — арт-рок, фольк-рок, хард-рок, фанк, панк, психоделія. Головною метою колектив наразі називає донести свою творчість до якомога ширшої аудиторії.


Якщо Ви справді бажаєте підтримати українське - після прослуховування, якщо музика вам сподобалась, придбайте ліцензійний диск. Підтримаймо вітчизняних виконавців!


Золотий реліз (завантажене не впливає на рейтинг)
 Трекер:    Зареєстрований   

Завантажити / скачати українську музику



відео для новачків



 Зареєстрований:   2013-05-07 09:16
 Розмір:   655 MB 
 Оцінка музики:   9.1/10 (Голосів: 10)
   
Форкуш 
VIP


З нами з: 03.02.10
Востаннє: 09.12.16
Повідомлень: 1545

2012-03-06 16:57  
Неперевершений гурт!!!
Lev 
VIP


З нами з: 14.10.09
Востаннє: 05.12.16
Повідомлень: 1819

2012-03-08 14:55  
Сухарєв не любить піратів Wide grin
Форкуш 
VIP


З нами з: 03.02.10
Востаннє: 09.12.16
Повідомлень: 1545

2012-03-08 15:23  
Lev
Знаю, що Чубай теж і кого це зупиняє?
:-)
Дерибан іде, як співає ДеШифер...

gosha.samovar 
VIP


З нами з: 08.09.10
Востаннє: 09.12.16
Повідомлень: 400

2012-03-08 15:26  
Цитата:
Сухарєв не любить піратів

Пірати в курсах=)).

jinotot 
Почесний оцифрувальник літератури


З нами з: 28.01.09
Востаннє: 04.12.16
Повідомлень: 3235

2012-03-10 10:58  
Lev написано:
Сухарєв не любить піратів
Він просто ще не знає, шо пірати "нужни нє для любві" © Wide grin

За релізи — щира дяка! Давно хотів переслухати, а от якраз і нагода.

Lev 
VIP


З нами з: 14.10.09
Востаннє: 05.12.16
Повідомлень: 1819

2012-03-10 14:28  
Форкуш написано:

Знаю, що Чубай теж і кого це зупиняє?
:-)


Та воно ясно. Я теж за піратський рухняк, саме того й сиджу тут =)
Це безкоштовна реклама, а хто не хоче купити диск - той його ніколи не купить, і навпаки.

gosha.samovar 
VIP


З нами з: 08.09.10
Востаннє: 09.12.16
Повідомлень: 400

2012-03-11 11:42  
Цитата:
Знаю, що Чубай теж і кого це зупиняє?
:-)

Пан Чубай, по-перше, звізду упіймав, а, по-друге, у людини творча криза. От і доводиться щось вигадувати, аби виправдати власну бездіяльність.
Нормальні люди самі створюють авторські роздачі, або дають згоду, щоб хтось створив. Принаймні, вони не мелять дурниць про піратів та авторські права, розуміючи, що у цій країні це звучить дещо дивно.

Цитата:
За релізи — щира дяка!

На здоров*я!

Lev 
VIP


З нами з: 14.10.09
Востаннє: 05.12.16
Повідомлень: 1819

2012-03-11 15:50  
gosha.samovar написано:
у людини творча криза


Нічого подібного нема. Перед тим як таке казати, добре подумайте чи знаєте це напевно.
А то виходить пальцем в небо.
Ви хоча б слухали нові треки, які Чубай викладає на свій ФБ ?

gosha.samovar 
VIP


З нами з: 08.09.10
Востаннє: 09.12.16
Повідомлень: 400

2012-03-11 16:34  
Цитата:
А то виходить пальцем в небо.

Скільки років Чубай не видавав альбомів? Якщо рахувати від "Світло і сповідь", виходить... 2012-2003=9. 9 років. А коли його питають про наступний альбом, у відповідь маємо:
Цитата:

А щодо паузи, то відповім так: стараєшся дістати якісь кошти, аби видати альбом, а віддачі практично жодної. Все з’являється в інтернеті, на піратських дисках. Якось у Дніпропетровську ми побачили чудовий такий диск під назвою «Зірки української естради», де на mp3 представлені всі наші альбоми, ще й фотографії, стягнуті з інтернету. Причому з легальною наліпкою, з голограмою. Тож немає жодного шансу повернути гроші, вкладені в альбом.


Поясніть мені Ви (бо в мене лише одне пояснення), чому так сталося, що один з найповажніших музикантів української рок-сцени замовк на 9 років і продовжує мовчати ? Скільки треків він виклав за цей час? Доречі, дайте, будь ласка, посилання - послухаю ті треки.

Lev 
VIP


З нами з: 14.10.09
Востаннє: 05.12.16
Повідомлень: 1819

2012-03-11 20:16  
gosha.samovar написано:
Скільки років Чубай не видавав альбомів?


1. Творити і записувати матеріал, і видавати його - це різні речі, особливо в нашій країні, де лейбли скурвились до ручки.

gosha.samovar написано:
у відповідь маємо:


2. Це далеко не свіже інтерв'ю. Я спілкуюся з його сестрою і вишу в нього у френдах на ФБ і значно краще знаю ситуацію.

gosha.samovar написано:
Поясніть мені Ви (бо в мене лише одне пояснення), чому так сталося, що один з найповажніших музикантів української рок-сцени замовк на 9 років і продовжує мовчати ?


3. Назвіть мені, будь ласка, які концерти в нього будуть у березні, а тоді поговоримо далі. Бо мені відповідь добре відома, можу афіші сюди присобачити ще для наочності.

gosha.samovar написано:
Скільки треків він виклав за цей час?


4. Досить дофіга, враховуючи його перфекціонізм як музиканта і звукорежисера. Слухати тут
http://www.reverbnation.com/artist/artist_songs/1660822

Альбому досі немає, бо він сумнівається в тому, що досі потрібен широкій публіці - в митців таке буває. Переконати його в широкій підтримці - наша з Вами справа.

І ще раз наголошую - в нього дуже багато готового невиданого матеріалу. В мене є деякі ідеї, як це прискорити і як щось знатиму, я неодмінно розповім.

Наприклад в цій спільноті, засновником і модером якої я є http://plach-jeremiyi.livejournal.com/

А на ФБ за новинами можна слідкувати на цій публічній сторінці
http://кому треба - той сам знайде

gosha.samovar 
VIP


З нами з: 08.09.10
Востаннє: 09.12.16
Повідомлень: 400

2012-03-11 21:04  
Не можу не радіти з таких новин! Вважайте, що про кризу я сказав просто з роспачу (МП - розпались, Гайдамаки - теж, Чубай - мовчить...). Хочу сказати, що мені особисто дуже потрібна така музика, яку робив, і, сподіваюсь, робитиме Чубай та Плач Єремії.
Lev, ще раз дякую за добрі новини.

gosha.samovar 
VIP


З нами з: 08.09.10
Востаннє: 09.12.16
Повідомлень: 400

2013-05-07 09:28  
Увага!
Торрент-файл змінено, оскільки ріп диску (2007) Самі Свої - Смарагди містив помилку, і я його переробив.

Ваш часовий пояс: GMT + 2 Години

Нова тема   Відповісти