Завантажити та скачати торренти українською


Я не знаю, як їй це вдається / I Don't Know How She Does It (2011) 720p Ukr/Eng | sub Ukr/Eng

Нові коментарі

Нова тема   Відповісти
Останній раз роздавалося hattabych74 (2016-12-08)
Автор Повідомлення
xfsthe 
Оцифрування книг Гуртом
Оцифрування книг Гуртом


З нами з: 13.02.11
Востаннє: 07.12.16
Повідомлень: 279

2012-03-05 23:44  
Я не знаю, як їй це вдається / I Don't Know How She Does It (2011) 720p Ukr/Eng | sub Ukr/Eng

Я не знаю, як їй це вдається / I Don't Know How She Does It (2011) 720p Ukr/Eng | sub Ukr/Eng


Жанр: комедія
Країна: США



Кіностудія / кінокомпанія: The Weinstein Company
Режисер: Дуглас Макграт
Актори: Сара Джессіка Паркер, Пірс Броснан, Грег Кіннер, Крістіна Хендрікс, Келсі Греммер, Сет Майєрс, Олівія Манн, Джейн Куртін, Марк Блум, Бізі Філіппс, Сара Шахі, Джессіка Зор

Сюжет:
Кейт - фондовий менеджер і мати двох дітей. На відміну від чоловіків, які не можуть робити дві справи одночасно, Кейт одразу може робити їх сто: міняти пелюшки, продавати і купувати акції, з'ясовувати стосунки з чоловіком, відбиватися від тупого боса і багато чого ще. Життя Кейт - це низка кумедних, незручних і безглуздих ситуацій, в які вона постійно потрапляє у спробах втиснути два життя в одне. Чудова комедія, після якої багато жінок задумаються про зміни у своєму житті, а чоловіки подивляться на своїх жінок по-іншому.


Тривалість: 01:29:28
Якість: 720p
Відео:
кодек:
розмір кадру: 1280 x 720
бітрейт: 7 222 кб/с

Аудіо # 1:
мова: українська
переклад: багатоголосий закадровий
кодек: 5.1
бітрейт: 448 кб/с

Аудіо # 2:
мова: англійська
переклад: оригінал
кодек: 5.1
бітрейт: 448 кб/с

Субтитри # 1:
мова: українська
тип: програмні (м'які)
формат: *.srt

Субтитри # 2:
мова: англійська
тип: програмні (м'які)
формат: *.srt
MediaInfo

General
Unique ID : 62262150279424130215938812708410705980 (0x2ED74103AFDAB71A0AA149DCCDAD483C)
Complete name : /media/media/0_my_relises/I Don't Know How She Does It (2011) [ukr,eng] sub[ukr,eng] 720p.mkv
Format : Matroska
Format version : Version 2
File size : 5.06 GiB
Duration : 1h 29mn
Overall bit rate : 8 096 Kbps
Movie name : Я не знаю, як їй це вдається / I Don't Know How She Does It (2011) 720p
Encoded date : UTC 2012-03-05 21:21:00
Writing application : mkvmerge v5.0.1 ('Es ist Sommer') built on Oct 13 2011 14:41:12
Writing library : libebml v1.2.2 + libmatroska v1.3.0

Video
ID : 1
Format : AVC
Format/Info : Advanced Video Codec
Format profile : [email protected]
Format settings, CABAC : Yes
Format settings, ReFrames : 9 frames
Codec ID : V_MPEG4/ISO/AVC
Duration : 1h 29mn
Bit rate : 7 222 Kbps
Width : 1 280 pixels
Height : 720 pixels
Display aspect ratio : 16:9
Frame rate : 23.976 fps
Color space : YUV
Chroma subsampling : 4:2:0
Bit depth : 8 bits
Scan type : Progressive
Bits/(Pixel*Frame) : 0.327
Stream size : 4.40 GiB (87%)
Title : Я не знаю, як їй це вдається / I Don't Know How She Does It (2011) 720p
Writing library : core 119 r2106 07efeb4
Encoding settings : cabac=1 / ref=9 / deblock=1:-3:-3 / analyse=0x3:0x113 / me=umh / subme=10 / psy=1 / psy_rd=1.00:0.10 / mixed_ref=1 / me_range=32 / chroma_me=1 / trellis=2 / 8x8dct=1 / cqm=0 / deadzone=21,11 / fast_pskip=0 / chroma_qp_offset=-5 / threads=9 / sliced_threads=0 / nr=0 / decimate=0 / interlaced=0 / bluray_compat=0 / constrained_intra=0 / bframes=4 / b_pyramid=2 / b_adapt=2 / b_bias=0 / direct=3 / weightb=1 / open_gop=0 / weightp=2 / keyint=250 / keyint_min=23 / scenecut=40 / intra_refresh=0 / rc_lookahead=40 / rc=2pass / mbtree=1 / bitrate=7222 / ratetol=1.0 / qcomp=0.60 / qpmin=0 / qpmax=69 / qpstep=4 / cplxblur=20.0 / qblur=0.5 / vbv_maxrate=40000 / vbv_bufsize=40000 / nal_hrd=none / ip_ratio=1.40 / aq=2:0.80
Language : English

Audio #1
ID : 2
Format : AC-3
Format/Info : Audio Coding 3
Mode extension : CM (complete main)
Codec ID : A_AC3
Duration : 1h 29mn
Bit rate mode : Constant
Bit rate : 448 Kbps
Channel(s) : 6 channels
Channel positions : Front: L C R, Side: L R, LFE
Sampling rate : 48.0 KHz
Bit depth : 16 bits
Compression mode : Lossy
Stream size : 287 MiB (6%)
Title : 5.1 @ 448 kbps - Новий канал
Language : Ukrainian

Audio #2
ID : 3
Format : AC-3
Format/Info : Audio Coding 3
Mode extension : CM (complete main)
Codec ID : A_AC3
Duration : 1h 29mn
Bit rate mode : Constant
Bit rate : 448 Kbps
Channel(s) : 6 channels
Channel positions : Front: L C R, Side: L R, LFE
Sampling rate : 48.0 KHz
Bit depth : 16 bits
Compression mode : Lossy
Stream size : 287 MiB (6%)
Title : 5.1 @ 448 kbps
Language : English

Text #1
ID : 4
Format : UTF-8
Codec ID : S_TEXT/UTF8
Codec ID/Info : UTF-8 Plain Text
Language : Ukrainian

Text #2
ID : 5
Format : UTF-8
Codec ID : S_TEXT/UTF8
Codec ID/Info : UTF-8 Plain Text
Language : English
Світлини:




Джерело: &
Особиста оцінка: 0 - не дивився

Дякую панові НТН за звукову доріжку.
Дякую панові akon111 за запис з каналу.


 Трекер:    Зареєстрований   

Завантажити / скачати фільм українською



відео для новачків



 Зареєстрований:   2012-03-05 23:49
 Розмір:   5.06 GB 
 Оцінка фільму:   7.9/10 (Голосів: 8)
   
kizinaola 
Новенький


З нами з: 20.12.11
Востаннє: 27.09.12
Повідомлень: 7

2012-03-06 11:53  
Фільм про дуууужеееееееее зайняту жінку- бізнес-леді. Ось їм і варто цей фільм дивитися !
Думаю, що чоловіки тут для себе нічого цікавого не побачать. Але ... була б цікавою для мене (а я ж не чоловік) думка справжніх козаків про цей фільм...

waldi-hurtom 
VIP


З нами з: 07.10.12
Востаннє: 07.12.16
Повідомлень: 611

2012-11-27 19:33  
На диво - на відміну від більшості "жіночих" фільмів, цей підштовхує до думки про сенс життя, або, швидше, про безглуздість сучасного метушливого життя. Принаймні, це моє враження. Непогано. 6/10 Український переклад теж непоганий, хоч і не супер.
Ваш часовий пояс: GMT + 2 Години

Нова тема   Відповісти