Завантажити та скачати торренти українською


Олег Сухарєв - Поклик (2007) [FLAC] | Folk-Rock

Нові коментарі

Нова тема   Відповісти
Автор Повідомлення
gosha.samovar 
VIP


З нами з: 08.09.10
Востаннє: 03.12.16
Повідомлень: 400

2012-03-05 23:28  
Олег Сухарєв - Поклик (2007) [FLAC] | Folk-Rock

Олег Сухарєв - Поклик (2007) [FLAC] | Folk-Rock


Стиль: Folk Rock
Країна, місто: Україна, Київ
Сайти: Офіційний сайт
Видавець: "САМЕ ТАК!"
Виконавці:
Вокал та гітара - Олег Сухарєв
Пісні:
    01. Бути собою
    02. Поклик
    03. Де моя Земля?
    04. Істина
    05. Притча
    06. Пісня про Пісню
    07. "Їхав, їхав козак містом..."
    08. Розмова з сином
    09. Відчуття неминучого
    10. День і Ніч
    11. Знову будемо
    12. Пустоти
    13. Краєм
    14. Посвята
    15. На Говерлі
    16. Забуті степи
    17. Карпатська балада
EAC Log
Exact Audio Copy V1.0 beta 3 from 29. August 2011

Отчёт EAC об извлечении, выполненном 5. марта 2012, 22:51

Олег Сухарєв / Поклик

Дисковод: PHILIPS SPD2519T Adapter: 2 ID: 0

Режим чтения : Достоверность
Использование точного потока : Да
Отключение кэша аудио : Да
Использование указателей C2 : Нет

Коррекция смещения при чтении : 6
Способность читать области Lead-in и Lead-out : Нет
Заполнение пропущенных сэмплов тишиной : Да
Удаление блоков с тишиной в начале и конце : Нет
При вычислениях CRC использовались нулевые сэмплы : Да
Интерфейс : Встроенный Win32-интерфейс для Win NT/2000

Выходной формат : Пользовательский кодировщик
Выбранный битрейт : 1024 kBit/s
Качество : Высокий
Добавление ID3-тега : Нет
Утилита сжатия : D:\soft_2\EAC\Exact Audio Copy\Flac\flac.exe
Дополнительные параметры : -V -8 -T "Date=%year%" -T "Genre=%genre%" %source%

TOC извлечённого CD

Трек | Старт | Длительность | Начальный сектор | Конечный сектор
---------------------------------------------------------------------
1 | 0:00.00 | 2:12.45 | 0 | 9944
2 | 2:12.45 | 1:56.00 | 9945 | 18644
3 | 4:08.45 | 4:02.00 | 18645 | 36794
4 | 8:10.45 | 2:32.47 | 36795 | 48241
5 | 10:43.17 | 2:38.35 | 48242 | 60126
6 | 13:21.52 | 2:23.21 | 60127 | 70872
7 | 15:44.73 | 2:23.20 | 70873 | 81617
8 | 18:08.18 | 1:44.03 | 81618 | 89420
9 | 19:52.21 | 1:57.32 | 89421 | 98227
10 | 21:49.53 | 3:29.27 | 98228 | 113929
11 | 25:19.05 | 3:08.00 | 113930 | 128029
12 | 28:27.05 | 1:57.00 | 128030 | 136804
13 | 30:24.05 | 2:02.56 | 136805 | 146010
14 | 32:26.61 | 2:32.57 | 146011 | 157467
15 | 34:59.43 | 3:40.57 | 157468 | 174024
16 | 38:40.25 | 3:24.01 | 174025 | 189325
17 | 42:04.26 | 3:28.33 | 189326 | 204958

Характеристики диапазона извлечения и сообщения об ошибках

Выбранный диапазон

Имя файла E:\Музіка!\from EAC\Олег Сухарєв - Поклик.wav

Пиковый уровень 88.0 %
Скорость извлечения 7.0 X
Качество диапазона 100.0 %
CRC теста DC95E01E
CRC копии DC95E01E
Копирование... OK

Ошибок не произошло

AccurateRip: сводка

Трек 1 отсутствует в базе данных
Трек 2 отсутствует в базе данных
Трек 3 отсутствует в базе данных
Трек 4 отсутствует в базе данных
Трек 5 отсутствует в базе данных
Трек 6 отсутствует в базе данных
Трек 7 отсутствует в базе данных
Трек 8 отсутствует в базе данных
Трек 9 отсутствует в базе данных
Трек 10 отсутствует в базе данных
Трек 11 отсутствует в базе данных
Трек 12 отсутствует в базе данных
Трек 13 отсутствует в базе данных
Трек 14 отсутствует в базе данных
Трек 15 отсутствует в базе данных
Трек 16 отсутствует в базе данных
Трек 17 отсутствует в базе данных

Ни одного трека нет в базе AccurateRip

Конец отчёта

==== Контрольная сумма отчёта 09BE19A41D3B17D4C6F1DC6FE8187EE08D047FF23043B2B3A83F2FAB1C86B3D7 ====
Спектр
Тривалість: 00:45:00
Мова: українська
Аудіо-кодек: FLAC
Бітрейт: 732 кб/с
Джерело: власний ріп власного CD
Додаткова інформація
umka.com.ua:

Якщо Ви вже чули цей голос раніше, то навряд переплутаєте його з чиїмось іншим – Олег Сухарєв має цікаву манеру виконання. Але зараз не про манеру. Практично одночасно з цією платівкою вийшов дебютний альбом гурту Самі Свої (лідером якого і є Олег Сухарєв) – "Смарагди". І якщо "Смарагди" – гострий фольк-рок, в якому жоден зайвий інструмент не є зайвим, то "Поклик" – рок акустичний. Максимально проста, чиста концепція – акустична гітара плюс спів. А це означає, що на перший план виходять тексти – і, повірте, вони варті того, щоби слухати їх уважно, і не один раз. Власне, саме внутрішня якість текстів дозволяє визначити цю творчість як рок, а не як, скажімо, бардівську пісню. Це навіть чимось нагадує старі часи – квартирні концерти, маленьке коло уважних слухачів, твоя душа на відстані одного подиху... Втім, Ви почуєте студійний запис – тому із якістю тут все нормально. Що, в свою чергу, дозволяє відчути пісні Олега Сухарєва напряму, безпосередньо – і цілком очевидно, що він свою справу знає добре. В піснях звучить така важлива щирість, пронизливість – інакше обраний формат запису став би провальним. Але – все добре, серйозно, переконливо. Зрештою, якщо вже рок-музикант здатен сам-один встояти перед аудиторією – значить, його пісні дійсно справжні, не порожні...


Якщо Ви справді бажаєте підтримати українське - після прослуховування, якщо музика вам сподобалась, придбайте ліцензійний диск. Підтримаймо вітчизняних виконавців!


Срібний реліз (на рейтинг впливає 50% завантаженого)
 Трекер:    Зареєстрований   

Завантажити / скачати українську музику



відео для новачків



 Зареєстрований:   2012-03-05 23:28
 Розмір:   243 MB 
 Оцінка музики:   10/10 (Голосів: 5)
   
Ваш часовий пояс: GMT + 2 Години

Нова тема   Відповісти