Завантажити та скачати торренти українською


2004 (серії 1-4)

Нові коментарі

Нова тема   Відповісти
Автор Повідомлення
Krig 
Оцифрування книг Гуртом
Оцифрування книг Гуртом


З нами з: 02.02.12
Востаннє: 05.12.16
Повідомлень: 335

2012-03-05 15:32  
2004 (серії 1-4) (2008)

2004 (серії 1-4)


Жанр: документальний серіал
Країна: Україна

Кіностудія / кінокомпанія: СТБ
Режисер: Ярослав Андрущенко, автор Олексій Мустафін
Сюжет:
У документальному серіалі "2004" автори намагались проаналізувати буремні події кінця 2004 року, коли відбувались президентські вибори. Цей період увійшов в історію України як - Помаранчева революція.
Авторським колективом була зроблена спроба створити об'єктивний фільм, але на мій погляд незначеий перекос на користь синьо-білих і президента Кучми все ж таки відчувається.
Тим не меньше я рекомендую всім подивитися цей фільм, бо не дивлячись на те що про помаранчеву революцію говорилось багато, якісних фільмів і передач про неї було зроблено дуже мало. До того ж розумний і вдумливий глядач при перегляді сам зможе відділити зерно від полови і розібратись з тим що тоді відбувалось.


Тривалість: 1 серія: 58:41; 2 серія 64; 3 серія 55:17 ; 4 серія 52:4 (цілком серій: 4)
Перелік серій
1 серія "Загублений шанс" ;
2 серія "Бій без правил" ;
3 серія "Велика шахівниця" ;
4 серія "Над прірвою".
Якість:
Відео:
кодек:
розмір кадру: 600х337
бітрейт: 1 526 кб/с

Аудіо:
мова: українська, російська
кодек: MP3
бітрейт: 128 кб/с
MediaInfo

Format : AVI
Format/Info : Audio Video Interleave
File size : 700 MiB
Duration : 58mn 41s
Overall bit rate : 1 667 Kbps
Writing application : MEncoder SVN-r30881(20100311-gcc4.3.3)
Writing library : MPlayer

Video
ID : 0
Format : MPEG-4 Visual
Format profile : Advanced [email protected]
Format settings, BVOP : 2
Format settings, QPel : No
Format settings, GMC : No warppoints
Format settings, Matrix : Default (H.263)
Codec ID :
Codec ID/Hint :
Duration : 58mn 41s
Bit rate : 1 526 Kbps
Width : 600 pixels
Height : 337 pixels
Display aspect ratio : 16:9
Frame rate : 25.000 fps
Standard : PAL
Color space : YUV
Chroma subsampling : 4:2:0
Bit depth : 8 bits
Scan type : Progressive
Compression mode : Lossy
Bits/(Pixel*Frame) : 0.147
Stream size : 641 MiB (92%)
Writing library : 1.2.1 (UTC 2008-12-04)

Audio
ID : 1
Format : MPEG Audio
Format version : Version 1
Format profile : Layer 3
Mode : Joint stereo
Mode extension : MS Stereo
Codec ID : 55
Codec ID/Hint : MP3
Duration : 58mn 41s
Bit rate mode : Constant
Bit rate : 128 Kbps
Channel(s) : 2 channels
Sampling rate : 48.0 KHz
Compression mode : Lossy
Delay relative to video : 40ms
Stream size : 53.7 MiB (8%)
Alignment : Aligned on interleaves
Interleave, duration : 24 ms (0.60 video frame)
Interleave, preload duration : 504 ms
Скріншоти
Джерело: Власний Rip
Особиста оцінка: 8 - мені сподобалося
Файли сумісні з побутовими плеєрами.


 Трекер:    Зареєстрований   

Завантажити / скачати фільм українською



відео для новачків



 Зареєстрований:   2012-03-05 15:32
 Розмір:   2.88 GB 
 Оцінка фільму:   10/10 (Голосів: 5)
   
bot 
робот


З нами з: 30.09.07
Востаннє: 26.05.05
Повідомлень: 15998

2012-03-05 15:45  
Тему перенесено з Телесеріали до форуму Наукові та пізнавальні фільми


Tarasyk

Krig 
Оцифрування книг Гуртом
Оцифрування книг Гуртом


З нами з: 02.02.12
Востаннє: 05.12.16
Повідомлень: 335

2012-03-05 17:00  
///
shutbanderas 
Поважний учасник


З нами з: 09.04.09
Востаннє: 04.12.16
Повідомлень: 227

2012-03-05 19:07  
Я бачив руки, що не крали,
Їх били, красти не давали,
Але пройшов недовгий час,
I «облапошили» вcix нас.

При тому найдорожче вкрали:
Haдію, вipy розтоптали,
Країну рідну й ту просрали
Ti руки, що ніяк не крали.

Мовчить смиренний наш народ,
Немов набрав води у рот.
Ковтає байку про Європу,
А Україні - повна жопа.

Це слово не літературне
Тепер звучить, як щось гламурне,
Бо з жопи тої виростали
Знайомі руки, що не крали.

До України йдуть напасті,
А руки крали й будуть красти...
Пасують цим рукам кайдани
За те, що люди на Майдані
Були обдуренi зухвало
Руками, що майбутнє вкрали.

taras1988_2008 
Модератор розділу ТБ


З нами з: 01.05.09
Востаннє: 23.10.16
Повідомлень: 871

2012-03-05 19:13  
додані скріншоти 600 × 337 , а в оформлені розмір кадру: 720х576 , де помилка ?? виправіть.
Jack_Daniels 
VIP


З нами з: 30.07.10
Востаннє: 04.12.16
Повідомлень: 297

2012-03-05 19:47  
на скільки цей фільм обєктивний ? Чи знято "на змовлення" Враження від перегляду ?!
Ваш часовий пояс: GMT + 2 Години

Нова тема   Відповісти