Завантажити та скачати торренти українською


Замерзлі / Frozen (2010) 720p Ukr/Eng | Sub Eng

Нові коментарі

Нова тема   Відповісти
Автор Повідомлення
leroykendall 
Модератор HD


З нами з: 03.01.11
Востаннє: 20.11.16
Повідомлень: 749

2012-03-04 17:43  
Замерзлі / Frozen (2010) 720p Ukr/Eng | Sub Eng

Замерзлі / Frozen (2010) 720p Ukr/Eng | Sub Eng

«No one knows you're up there.»


Жанр: Драма, Трилер
Країна: США





Кіностудія / кінокомпанія: A Bigger Boat, ArieScope Pictures, Anchor Bay Films
Режисер: Адам Грін (Adam Green)
Актори: Емма Белл (Emma Bell), Шон Ешмор (Shawn Ashmore), Кевін Зегерс (Kevin Zegers), Ед Екерман (Ed Ackerman), Райлі Вандербілт (Rileah Vanderbilt), Кейн Ходдер (Kane Hodder), Адам Джонсон (Adam Johnson), Кріс Йорк (Chris York), Педер Мелхьоз (Peder Melhuse), Уілл Берретт (Will Barratt)

Сюжет:
Не вдивляйтеся в безодню, інакше безодня почне вдивлятися у вас. Три молоді людини — сноубордисти і лижник навіть і не підозрювали, як це може бути в реальності, і яке жахливе страхіття чекає на них. Вони застрягають на підйомнику, і веселий вечір в засніжених зимових горах перетворюється на пекло. Страшний холод і обпалюючий вітер несуть загибель нещасним, що опинилися в пастці на величезній висоті. Час працює проти них — ніхто не прийде на допомогу, адже гірськолижний курорт закритий на декілька днів. Залишається одне — рятуватися самим. Але щоб врятуватися — потрібно перемогти жах цієї ночі! Весь жах...


Тривалість: 01:33:18
Якість: 720p (ріп від CHD)
Відео:
кодек:
розмір кадру: 1280 х 534
бітрейт: 6754 кб/с

Аудіо # 1:
мова: українська
переклад: багатоголосий закадровий
кодек: 5.1
бітрейт: 384 кб/с

Аудіо # 2:
мова: англійська
переклад: оригінал
кодек: 5.1
бітрейт: 1510 кб/с

Джерело озвучення:


Субтитри:
мова: англійська
тип: програмні (м'які)
формат: *.srt


MediaInfo
Код:
General
Complete name                    : V:\Frozen (2010) [Ukr, Eng] 720p by leroykendall.mkv
Format                           : Matroska
File size                        : 5.75 GiB
Duration                         : 1h 33mn
Overall bit rate                 : 8 824 Kbps
Movie name                       : Frozen (2010) [Ukr, Eng] 720p [Hurtom] by leroykendall
Encoded date                     : UTC 2012-03-04 08:36:22
Writing application              : mkvmerge v4.9.1 ('Ich will') зібрано Jul 11 2011 23:53:15
Writing library                  : libebml v1.2.1 + libmatroska v1.1.1

Video
ID                               : 1
Format                           : AVC
Format/Info                      : Advanced Video Codec
Format profile                   : [email protected]
Format settings, CABAC           : Yes
Format settings, ReFrames        : 8 frames
Muxing mode                      : Container [email protected]
Codec ID                         : V_MPEG4/ISO/AVC
Duration                         : 1h 33mn
Bit rate                         : 6 754 Kbps
Nominal bit rate                 : 6 926 Kbps
Width                            : 1 280 pixels
Height                           : 534 pixels
Display aspect ratio             : 2.35:1
Frame rate                       : 23.976 fps
Resolution                       : 24 bits
Colorimetry                      : 4:2:0
Scan type                        : Progressive
Bits/(Pixel*Frame)               : 0.412
Stream size                      : 4.40 GiB (76%)
Title                            : ріп від CHD
Writing library                  : core 102 r1666 d058f37
Encoding settings                : cabac=1 / ref=8 / deblock=1:-3:-3 / analyse=0x3:0x113 / me=umh / subme=10 / psy=1 / psy_rd=1.05:0.00 / mixed_ref=1 / me_range=32 / chroma_me=1 / trellis=2 / 8x8dct=1 / cqm=2 / deadzone=21,11 / fast_pskip=0 / chroma_qp_offset=-1 / threads=12 / sliced_threads=0 / nr=0 / decimate=1 / interlaced=0 / constrained_intra=0 / bframes=6 / b_pyramid=2 / b_adapt=2 / b_bias=0 / direct=3 / weightb=1 / open_gop=0 / weightp=2 / keyint=250 / keyint_min=25 / scenecut=40 / intra_refresh=0 / rc_lookahead=50 / rc=2pass / mbtree=1 / bitrate=6926 / ratetol=1.0 / qcomp=0.60 / qpmin=10 / qpmax=51 / qpstep=4 / cplxblur=20.0 / qblur=0.5 / vbv_maxrate=50000 / vbv_bufsize=50000 / ip_ratio=1.40 / aq=1:1.00 / nal_hrd=none

Audio #1
ID                               : 2
Format                           : AC-3
Format/Info                      : Audio Coding 3
Codec ID                         : A_AC3
Duration                         : 1h 33mn
Bit rate mode                    : Constant
Bit rate                         : 384 Kbps
Channel(s)                       : 6 channels
Channel positions                : Front: L C R, Surround: L R, LFE
Sampling rate                    : 48.0 KHz
Stream size                      : 256 MiB (4%)
Title                            : 5.1 @ 384 кб/с
Language                         : Ukrainian

Audio #2
ID                               : 3
Format                           :
Format/Info                      : Digital Theater Systems
Codec ID                         : A_DTS
Duration                         : 1h 33mn
Bit rate mode                    : Constant
Bit rate                         : 1 510 Kbps
Channel(s)                       : 6 channels
Channel positions                : Front: L C R, Surround: L R, LFE
Sampling rate                    : 48.0 KHz
Resolution                       : 24 bits
Stream size                      : 1 008 MiB (17%)
Title                            : English @ 5.1 @ 1510 kbps

Text
ID                               : 4
Format                           : UTF-8
Codec ID                         : S_TEXT/UTF8
Codec ID/Info                    : UTF-8 Plain Text



Скріншоти:





Джерело:
Особиста оцінка: 7 - непоганий трилер з елементами жахів


 Трекер:    Зареєстрований   

Завантажити / скачати фільм українською



відео для новачків



 Зареєстрований:   2012-03-04 17:43
 Розмір:   5.75 GB 
 Оцінка фільму:   7.9/10 (Голосів: 21)
   
Інші релізи
   Замерзлі / Frozen (2010) 2xUkr/Eng krigg070  2 / 0   1.71 GB   2016-01-05 20:47 
   Замерзлі / Frozen (2010) 1080p Ukr/Eng | Sub Eng famous37  0 / 0   7.69 GB   2015-08-27 22:29 
Риф 
VIP


З нами з: 26.04.09
Востаннє: 04.12.16
Повідомлень: 460

2012-03-04 18:29  
Хороший фільм. Однозначно варто подивитись.
Alien8 
Частий відвідувач


З нами з: 12.07.10
Востаннє: 18.10.16
Повідомлень: 46

2012-03-04 18:53  
Цитата:
жахливий кошмар


хіба кошмар то українське слово?

І ще слово "леденить" в постері точно українське?

Я сам не філолог просто різонуло вухо, от і цікавлюся...

shutbanderas 
Поважний учасник


З нами з: 09.04.09
Востаннє: 04.12.16
Повідомлень: 227

2012-03-04 19:10  
Жахливий кошмар.... Кошмарний жах....Happy
imonko 
Відео Гуртом - фільмокрай
Відео Гуртом - фільмокрай


З нами з: 20.07.08
Востаннє: 31.10.16
Повідомлень: 7309

2012-03-04 19:17  
Alien8 написано:
І ще слово "леденить" в постері точно українське?

китайське будеш перебляти постер? для чого такі питання, якщо ніц зробити не можеш?

ratbol 
Модератор HD


З нами з: 03.02.09
Востаннє: 01.12.16
Повідомлень: 1088

2012-03-04 19:28  
Памятаю місцями не міг дивитись тяжкі сцени. Але загалом фільм вартий перегляду, дякую за хд!
Велес 
Свій


З нами з: 02.09.09
Востаннє: 26.11.16
Повідомлень: 92

2012-03-04 20:36  
''який жахливий кошмар'' краще написати-''яке жахливе страхіття'','' яке жахіття'', чи просто ''жах''
Вони застряють-Вони застрягають

Virake 
Localize Team
Localize Team


З нами з: 07.07.09
Востаннє: 05.12.16
Повідомлень: 4057

2012-03-04 22:11  
imonko написано:
китайське будеш перебляти постер? для чого такі питання, якщо ніц зробити не можеш?

ви б самі краще припинили псувати повітря своїм троллінгом.

Vitala9 
Поважний учасник


З нами з: 03.01.10
Востаннє: 05.12.16
Повідомлень: 209

2012-03-04 22:38  
Один із моїх найкращих фільмів.
leroykendall 
Модератор HD


З нами з: 03.01.11
Востаннє: 20.11.16
Повідомлень: 749

2012-03-04 22:59  
Alien8 написано:
хіба кошмар то українське слово?

Велес написано:
'який жахливий кошмар'' краще написати-''яке жахливе страхіття'','' яке жахіття'', чи просто ''жах''

Ну, насправді, ті словники що в мене є кажуть, що є таке слово в українській. Але згоден, що "страхіття", "жахіття" - це біль етнічніше. Виправив :-)
Alien8 написано:
І ще слово "леденить" в постері точно українське?

Також в словниках знайшов таке слово. І хоча б не так - вибачайте, мені з постером важко щось зробити. Нажаль, так і не зміг дізнатися хто його робив. Якщо підкажете - буду вдячний.
Велес написано:
Вони застряють-Вони застрягають

Ось тут згоден на 100%.
Взагалі ж, враховуючи під яким "дахом" знаходилась Україна останні 3 століття, то дивуватись нічому.

vovan_k 
Новенький


З нами з: 16.01.12
Востаннє: 03.12.16
Повідомлень: 9

2012-03-05 17:35  
нормальна кінушка. як на мене 8 з 10 балів
superbusok 
Свій


З нами з: 03.11.11
Востаннє: 04.12.16
Повідомлень: 54

2012-03-24 23:39  
Такий собі фільм.
Ваш часовий пояс: GMT + 2 Години

Нова тема   Відповісти