Завантажити та скачати торренти українською


Ронін / Ronin (1998) 720p 2xUkr/Eng | Sub Ukr/Eng

Нові коментарі

Нова тема   Відповісти
Автор Повідомлення
Віктор 
Відео Гуртом - субтитрування
Відео Гуртом - субтитрування


З нами з: 09.01.10
Востаннє: 09.12.16
Повідомлень: 8664

2012-03-04 16:53  
Ронін / Ronin (1998) 720p 2xUkr/Eng | Sub Ukr/Eng


Ронін / Ronin (1998) 720p 2xUkr/Eng | Sub Ukr/Eng

«Loyalty is bought, betrayal is a way of life...»


Жанр: бойовик, кримінальний, драма
Країна: Велика Британія, США



Кіностудія / кінокомпанія: FGM Entertainment, United Artists Corporation, United Artists
Режисер: Джон Франкенгеймер (John Frankenheimer)
Композитор: Еліа Кмірал (Elia Cmiral)
Актори: Роберт Де Ніро (Robert De Niro), Жан Рено (Jean Reno), Наташа МакЕлон (Natascha McElhone), Стелан Скарсґард (Stellan Skarsgård), Шон Бін (Sean Bean), Скіпп Саддаф (Skipp Sudduth), Майкл Лонсдейл (Michael Lonsdale), Джонатан Прайс (Jonathan Pryce), Рон Джеремі (Ron Jeremy) та інші.

Сюжет:
Хоча холодна війна давно завершена, таємні найманці, чиї навички у стеженні, шпигунстві і силових сутичках буквально леґендарні, залишаються дуже потрібними при новому світовому порядку і завжди знаходять високооплачувану роботу. Якийсь таємничий клієнт збирає в Парижі команду таких "платних оперативників", відомих як «Роніни», для викрадення надсекретного портфелю.
Номінації та цікаві факти

Премія каналу «MTV», 1999 рік
Номінації (1):
Найкраща екшн-сцена

Сатурн, 1999 рік
Номінації (1):
Найкращий пригодницький фільм, бойовик чи трилер

Цікаві факти про фільм


• Слово Ронін японського походження. Утворено воно з двох ієрогліфів-понять, що означають хвиля і людина. Ронін в середньовічній Японії називали декласованих самураїв, більшість яких перетворювалися в розбійників і найманих убивць. У японському фольклорі ронін, природно, був героєм - Робін Гудом місцевого розливу, благородним захисником пригноблених. Про ронінів складалися романи, знімалися фільми. Акіра Куросава оспівав ронінів в фільмі «Сім самураїв».
• Сценарій Дж. Д. Зейка був придбаний за півмільйона доларів кінокомпанією TriStar. На початку 1997 року його перекупила United Artists.
• Сценарним доктором на проекті працював Девід Мамет. Він значно переробив початковий сценарій, додавши серйозні зміни в характери і діалоги персонажів. В результаті цього розгорілися суперечки з приводу того, яке місце повинен займати Мамет у титрах. Він же був згоден з'явиться в титрах або під псевдонімом, або взагалі там не значиться. Справа закінчилася тим, що в титрах були вказані Дж. Д. Зейка і загадковий Річард Вайз (псевдонім Мамета).
• Режисер фільму Джон Франкенгеймер хотів запросити на роль другого плану Джимона Гонсу, який знявся до цього у Спілберґа в «Амістад», але продюсерам його вибір не сподобався. Франкенгаймер також намагався запросити Алека Болдвіна, але той відмовився зніматися в Європі, бо не хотів розлучатися з родиною.
• Під час зйомок було розбито 80 автомобілів.
• У фільмі зіграли одразу три виконавця лиходіїв у фільмах про Джеймса Бонда: Майкл Лонсдейл, Шон Бін і Джонатан Прайс.
• Головна музична тема фільму виконана на вірменський дудуці.
• Фіґуристку Наташу Кирилову, дворазову олімпійську чемпіонку і трикратну чемпіонку світу, зіграла дворазова олімпійська чемпіонка і чотириразова чемпіонка світу Катаріна Віт.
• Бюджет - $55,000,000
MediaInfo

Код:
General
Unique ID                        : 235842132960282925679828456546233317951 (0xB16D8AE7F0DB6DB7BA9680D3A2717A3F)
Complete name                    : D:\HURTOM\Ronin (1998) [2xUkr, Eng] 720p [Hurtom].mkv
Format                           : Matroska
Format version                   : Version 2
File size                        : 6.10 GiB
Duration                         : 2h 1mn
Overall bit rate                 : 7 184 Kbps
Movie name                       : Ronin (1998) [2xUkr, Eng] 720p [Hurtom]
Encoded date                     : UTC 2012-03-07 13:58:37
Writing application              : mkvmerge v5.0.1 ('Es ist Sommer') built on Oct  9 2011 11:55:43
Writing library                  : libebml v1.2.2 + libmatroska v1.3.0

Video
ID                               : 1
Format                           : AVC
Format/Info                      : Advanced Video Codec
Format profile                   : [email protected]
Format settings, CABAC           : Yes
Format settings, ReFrames        : 7 frames
Codec ID                         : V_MPEG4/ISO/AVC
Duration                         : 2h 1mn
Bit rate                         : 4 905 Kbps
Width                            : 1 280 pixels
Height                           : 542 pixels
Display aspect ratio             : 2.35:1
Frame rate                       : 23.976 fps
Color space                      : YUV
Chroma subsampling               : 4:2:0
Bit depth                        : 8 bits
Scan type                        : Progressive
Bits/(Pixel*Frame)               : 0.295
Stream size                      : 4.04 GiB (66%)
Title                            : Ronin (1998) [2xUkr, Eng] 720p [Hurtom]
Writing library                  : core 107 r1772 c9dad9e
Encoding settings                : cabac=1 / ref=8 / deblock=1:-3:-3 / analyse=0x3:0x113 / me=tesa / subme=10 / psy=1 / psy_rd=0.90:0.20 / mixed_ref=1 / me_range=32 / chroma_me=1 / trellis=2 / 8x8dct=1 / cqm=0 / deadzone=21,11 / fast_pskip=0 / chroma_qp_offset=-3 / threads=6 / sliced_threads=0 / nr=0 / decimate=1 / interlaced=0 / constrained_intra=0 / bframes=6 / b_pyramid=1 / b_adapt=2 / b_bias=0 / direct=3 / weightb=1 / open_gop=0 / weightp=2 / keyint=250 / keyint_min=23 / scenecut=40 / intra_refresh=0 / rc_lookahead=80 / rc=2pass / mbtree=1 / bitrate=4905 / ratetol=1.0 / qcomp=0.60 / qpmin=10 / qpmax=51 / qpstep=4 / cplxblur=20.0 / qblur=0.5 / ip_ratio=1.40 / aq=1:1.10
Language                         : English
Default                          : Yes
Forced                           : No

Audio #1
ID                               : 2
Format                           : AC-3
Format/Info                      : Audio Coding 3
Mode extension                   : CM (complete main)
Codec ID                         : A_AC3
Duration                         : 2h 1mn
Bit rate mode                    : Constant
Bit rate                         : 384 Kbps
Channel(s)                       : 6 channels
Channel positions                : Front: L C R, Side: L R, LFE
Sampling rate                    : 48.0 KHz
Bit depth                        : 16 bits
Compression mode                 : Lossy
Stream size                      : 334 MiB (5%)
Title                            : 5.1 @ 384 kbps - двоголосий закадровий | запис з 2+2
Language                         : Ukrainian
Default                          : Yes
Forced                           : No

Audio #2
ID                               : 3
Format                           : AC-3
Format/Info                      : Audio Coding 3
Mode extension                   : CM (complete main)
Codec ID                         : A_AC3
Duration                         : 2h 1mn
Bit rate mode                    : Constant
Bit rate                         : 384 Kbps
Channel(s)                       : 6 channels
Channel positions                : Front: L C R, Side: L R, LFE
Sampling rate                    : 48.0 KHz
Bit depth                        : 16 bits
Compression mode                 : Lossy
Stream size                      : 334 MiB (5%)
Title                            : 5.1 @ 384 kbps - багатоголосий закадровий
Language                         : Ukrainian
Default                          : No
Forced                           : No

Audio #3
ID                               : 4
Format                           :
Format/Info                      : Digital Theater Systems
Codec ID                         : A_DTS
Duration                         : 2h 1mn
Bit rate mode                    : Constant
Bit rate                         : 1 510 Kbps
Channel(s)                       : 6 channels
Channel positions                : Front: L C R, Side: L R, LFE
Sampling rate                    : 48.0 KHz
Bit depth                        : 24 bits
Compression mode                 : Lossy
Stream size                      : 1.28 GiB (21%)
Title                            : 5.1 @ 1536 kbps
Language                         : English
Default                          : No
Forced                           : No

Text #1
ID                               : 5
Format                           : UTF-8
Codec ID                         : S_TEXT/UTF8
Codec ID/Info                    : UTF-8 Plain Text
Title                            : R5
Language                         : Ukrainian
Default                          : No
Forced                           : No

Text #2
ID                               : 6
Format                           : ASS
Codec ID                         : S_TEXT/ASS
Codec ID/Info                    : Advanced Sub Station Alpha
Compression mode                 : Lossless
Title                            : Forced
Language                         : English
Default                          : No
Forced                           : No

Text #3
ID                               : 7
Format                           : ASS
Codec ID                         : S_TEXT/ASS
Codec ID/Info                    : Advanced Sub Station Alpha
Compression mode                 : Lossless
Title                            : Full
Language                         : English
Default                          : No
Forced                           : No

Text #4
ID                               : 8
Format                           : UTF-8
Codec ID                         : S_TEXT/UTF8
Codec ID/Info                    : UTF-8 Plain Text
Title                            : Full
Language                         : English
Default                          : No
Forced                           : No
Релізи та інформація про озвучення/дублювання

720p 2xUkr/Eng | Sub Ukr/Eng (6.10 GB) - двоголосий закадровий звук записаний з 2+2 і багатоголосий закадровий
2xUkr/Eng | Sub Ukr/Eng (2.51 GB) - двоголосий закадровий звук записаний з 2+2 і багатоголосий закадровий

Про озвучення записане з 2+2
Ролі озвучили: Олександр Завальський

Про озвучення з
Ролі озвучили: Жан Рено - Олег Стальчук, Ярослав Чорненький та інші.
Тривалість: 02:01:34
Якість: 720p (HiDt)
Відео:
кодек:
розмір кадру: 1280x542
бітрейт: 4905 кб/с
частота кадрів: 23.976 fps

Аудіо # 1:
мова: українська
переклад: двоголосий закадровий звук записаний з 2+2 | усі чоловічі ролі озвучив: Олександр Завальський
кодек: 5.1
бітрейт: 384 кб/с

Аудіо # 2:
мова: українська
переклад: багатоголосий закадровий звук записаний з ? | ролі озвучили: Жан Рено - Олег Стальчук, Ярослав Чорненький та інші.
кодек: 5.1
бітрейт: 384 кб/с

Аудіо # 3:
мова: англійська
переклад: ориґінал
кодек: 5.1
бітрейт: 1536 кб/с

Субтитри # 1:
мова: українська
тип: програмні (м'які)
формат: *.srt
джерело субтитрів: DVD (RuFilms), обробка і т.д. - w2958l

Субтитри # 2-4:
мова: англійська (форсовані, та повні в двох формат)
тип: програмні (м'які)
формат: *.srt, ass (стилізовані)

Скріншоти:





За якісну синхронізацію українських доріжок подяка Lan-у,
за запис доріжки з 2+2 подяка karvai0 і dvorsky


Джерело:
Особиста оцінка: 9


Срібний реліз (на рейтинг впливає 50% завантаженого)
 Трекер:    Зареєстрований   

Завантажити / скачати фільм українською



відео для новачків



 Зареєстрований:   2012-03-07 19:59
 Розмір:   6.1 GB 
 Оцінка фільму:   7.7/10 (Голосів: 12)
   
Інші релізи
   Ронін / Ronin (1998) 2xUkr/Eng | Sub Ukr/Eng Lan  5 / 4   2.51 GB   2012-03-07 20:09 
bot 
робот


З нами з: 30.09.07
Востаннє: 26.05.05
Повідомлень: 16045

2012-03-07 19:58  
Тему перенесено з Анонси релізів від Відео Гуртом до форуму Фільми в HD


w2958l

Ваш часовий пояс: GMT + 2 Години

Нова тема   Відповісти