Завантажити та скачати торренти українською


Джек і Джилл / Jack and Jill (2011) 720p Ukr/Eng | Sub Eng

Нові коментарі

Нова тема   Відповісти
Останній раз роздавалося DEN D (2016-12-02)
Автор Повідомлення
xfsthe 
Оцифрування книг Гуртом
Оцифрування книг Гуртом


З нами з: 13.02.11
Востаннє: 01.12.16
Повідомлень: 279

2012-03-03 22:01  
Джек і Джилл / Jack and Jill (2011) 720p Ukr/Eng | Sub Eng

Джек і Джилл / Jack and Jill (2011) 720p Ukr/Eng | Sub Eng


Жанр: комедія
Країна: США



Кіностудія / кінокомпанія: Broken Road Productions, Happy Madison Productions
Режисер: Денніс Дуган
Актори: Адам Сендлер, Кеті Холмс, Аль Пачіно, Джонні Депп, Шакіл О'Ніл, Елоді Тугне, Роен Чанд, Еудженіо Дербез, Девід Спейд, Нік Свардсон, Тім Медоуз, Аллен Коверт

Сюжет:
У центрі сюжету - сімейний чоловік на ім'я Джек, до якого на День Подяки нагрянула в гості його навіжена сестра-близнючка Джилл. І добре б погостювала та махнула ручкою, так адже немає: Джилл міцно влаштувалася в домі братика і, здається, найближчим часом не збирається їхати.


Тривалість: 01:30:49
Якість: 720p
Відео:
кодек:
розмір кадру: 1280 x 694
бітрейт: 5 353 кб/с

Аудіо # 1:
мова: українська
переклад: професійний дубльований
кодек: 5.1
бітрейт: 640 кб/с
завантажити: посилання

Аудіо # 2:
мова: англійська
переклад: оригінал
кодек: 5.1
бітрейт: 1510 кб/с

Субтитри #1:
мова: українська (форсовані)
тип: програмні (м'які)
формат: *.srt

Субтитри #2:
мова: англійська
тип: програмні (м'які)
формат: *.srt
MediaInfo

General
Unique ID : 102271906533984049173922956082633753597 (0x4CF0DA4C45F2EB5537E62920E3DFC3FD)
Complete name : /media/media/0_my_relises/Jack and Jill (2011) [ukr,eng] sub[ukr,eng] 720p.mkv
Format : Matroska
Format version : Version 2
File size : 4.76 GiB
Duration : 1h 30mn
Overall bit rate : 7 505 Kbps
Movie name : Jack and Jill (2011) - Release for HDCLUB
Encoded date : UTC 2012-03-14 15:50:43
Writing application : mkvmerge v5.0.1 ('Es ist Sommer') built on Oct 13 2011 14:41:12
Writing library : libebml v1.2.2 + libmatroska v1.3.0

Video
ID : 1
Format : AVC
Format/Info : Advanced Video Codec
Format profile : [email protected]
Format settings, CABAC : Yes
Format settings, ReFrames : 8 frames
Codec ID : V_MPEG4/ISO/AVC
Duration : 1h 30mn
Bit rate : 5 353 Kbps
Width : 1 280 pixels
Height : 694 pixels
Display aspect ratio : 16:9
Frame rate : 23.976 fps
Color space : YUV
Chroma subsampling : 4:2:0
Bit depth : 8 bits
Scan type : Progressive
Bits/(Pixel*Frame) : 0.251
Stream size : 3.30 GiB (69%)
Title : Джек і Джилл / Jack and Jill (2011) 720p
Writing library : core 120 r2146 bcd41db
Encoding settings : cabac=1 / ref=8 / deblock=1:-3:-3 / analyse=0x3:0x113 / me=umh / subme=10 / psy=1 / psy_rd=1.05:0.10 / mixed_ref=1 / me_range=32 / chroma_me=1 / trellis=2 / 8x8dct=1 / cqm=0 / deadzone=21,11 / fast_pskip=0 / chroma_qp_offset=-2 / threads=8 / sliced_threads=0 / nr=0 / decimate=1 / interlaced=0 / bluray_compat=0 / constrained_intra=0 / bframes=6 / b_pyramid=2 / b_adapt=2 / b_bias=0 / direct=3 / weightb=1 / open_gop=0 / weightp=2 / keyint=250 / keyint_min=23 / scenecut=40 / intra_refresh=0 / rc_lookahead=40 / rc=2pass / mbtree=0 / bitrate=5353 / ratetol=1.0 / qcomp=0.70 / qpmin=0 / qpmax=69 / qpstep=4 / cplxblur=20.0 / qblur=0.5 / vbv_maxrate=40000 / vbv_bufsize=30000 / nal_hrd=none / ip_ratio=1.40 / pb_ratio=1.30 / aq=2:0.80
Language : English

Audio #1
ID : 2
Format : AC-3
Format/Info : Audio Coding 3
Mode extension : CM (complete main)
Codec ID : A_AC3
Duration : 1h 30mn
Bit rate mode : Constant
Bit rate : 640 Kbps
Channel(s) : 6 channels
Channel positions : Front: L C R, Side: L R, LFE
Sampling rate : 48.0 KHz
Bit depth : 16 bits
Compression mode : Lossy
Stream size : 416 MiB (9%)
Title : 5.1 @ 640 kbps
Language : Ukrainian

Audio #2
ID : 3
Format :
Format/Info : Digital Theater Systems
Codec ID : A_DTS
Duration : 1h 30mn
Bit rate mode : Constant
Bit rate : 1 510 Kbps
Channel(s) : 6 channels
Channel positions : Front: L C R, Side: L R, LFE
Sampling rate : 48.0 KHz
Bit depth : 24 bits
Compression mode : Lossy
Delay relative to video : 11ms
Stream size : 981 MiB (20%)
Title : 5.1 @ 1510 kbps
Language : English

Text #1
ID : 4
Format : UTF-8
Codec ID : S_TEXT/UTF8
Codec ID/Info : UTF-8 Plain Text
Title : Forced
Language : Ukrainian

Text #2
ID : 5
Format : UTF-8
Codec ID : S_TEXT/UTF8
Codec ID/Info : UTF-8 Plain Text
Title : Full
Language : English
Світлини:


14.03.2012 Торент оновлено! Замінена українська доріжка з AC2 2.0 192 кбіт/с з DVD
на 5.1 640 кбіт/с з Blu-Ray.


Джерело: &
Особиста оцінка: 8 - прикольний фільм


 Трекер:    Зареєстрований   

Завантажити / скачати фільм українською



відео для новачків



 Зареєстрований:   2012-03-14 19:12
 Розмір:   4.76 GB 
 Оцінка фільму:   7.3/10 (Голосів: 30)
   
Інші релізи
   Джек і Джилл / Jack and Jill (2011) Jatx_11  5 / 0   1.45 GB   2012-03-09 04:15 
   Джек і Джилл / Jack and Jill (2011) 720p-mini AngryBirdsUA  0 / 0   2.03 GB   2012-03-05 21:46 
djlife17 
Новенький


З нами з: 23.06.10
Востаннє: 20.11.16
Повідомлень: 20

2012-03-04 00:34  
Підкажіть програму для відтворення HD та Full HD відеа, бо чомусь KMP такі фільми кидає крупинками...
xfsthe 
Оцифрування книг Гуртом
Оцифрування книг Гуртом


З нами з: 13.02.11
Востаннє: 01.12.16
Повідомлень: 279

2012-03-04 01:41  
djlife17 написано:
Підкажіть програму для відтворення HD та Full HD відеа, бо чомусь KMP такі фільми кидає крупинками...

спробуй Media Player Classic Home Cinema або VLC плеєр

Додано через 35 хвилин 51 секунду:

Gnat_ написано:
Можна доріжку окремо ?

додав

Virake 
Localize Team
Localize Team


З нами з: 07.07.09
Востаннє: 03.12.16
Повідомлень: 4050

2012-03-04 21:27  
xfsthe написано:
І добре б погостювала да махнула ручкою, так адже немає
І добре б погостювала та махнула ручкою, але же ні

народ, ви хоч інколи читайте, що у своїх релізах пишите.

xfsthe 
Оцифрування книг Гуртом
Оцифрування книг Гуртом


З нами з: 13.02.11
Востаннє: 01.12.16
Повідомлень: 279

2012-03-05 16:37  
Virake написано:
народ, ви хоч інколи читайте, що у своїх релізах пишите.

дякую, що помітив. просто хотілося пошвидше викласти. наступного разу буду уважніший.

Віктор 
Відео Гуртом - субтитрування
Відео Гуртом - субтитрування


З нами з: 09.01.10
Востаннє: 03.12.16
Повідомлень: 8662

2012-03-25 00:02  
Перемотав в плеєрі і забув) єдине, що сподобалось, так це наш дубляж і пісенька наприкінці фільму - Данкачіно) Олег Стальчук чудово заспівав.
magmator 
VIP


З нами з: 04.05.09
Востаннє: 02.12.16
Повідомлень: 910

2012-03-25 01:01  
Дуже чекав на цей фільм. Але для мене він став повним розчаруванням ні гра Адама Сендлера ні Аль Пачіно не врятували його від провалу. Фільм можна переглянути 1 раз і забути
lm_2210 
Новенький


З нами з: 28.10.10
Востаннє: 02.12.16
Повідомлень: 16

2012-03-26 03:02  
4.76 Гб качав довго й нудно! А фільм на 2!!!!! Рейтинг шкода! Ставлять такі фільми...!
Virake 
Localize Team
Localize Team


З нами з: 07.07.09
Востаннє: 03.12.16
Повідомлень: 4050

2012-03-26 10:39  
lm_2210, могли б спочатку подивитися оцінку IMDb (вона не завжди помилкова). ще є промовистий постер, опис сюжету, скріншоти... загалом, вдосталь інформації, щоб скласти попереднє враження про фільм і вирішити, качати чи ні.
jonnyzero 
Свій


З нами з: 04.01.09
Востаннє: 01.12.16
Повідомлень: 51

2015-11-01 21:16  
Дайте швидкосi. дякую
Ваш часовий пояс: GMT + 2 Години

Нова тема   Відповісти