Завантажити та скачати торренти українською


Як вийти замiж за мiльярдера / Chalet Girl (2011) 720p Ukr/Eng | Line

Нові коментарі

Нова тема   Відповісти
Автор Повідомлення
Zeus62 
Відео Гуртом - команда HD
Відео Гуртом - команда HD


З нами з: 29.12.08
Востаннє: 16.11.16
Повідомлень: 330

2012-03-01 16:56  
Як вийти замiж за мiльярдера / Chalet Girl (2011) 720p Ukr/Eng | Line

Як вийти замiж за мiльярдера / Chalet Girl (2011) 720p Ukr/Eng | Line


Жанр: комедія, романтичний
Країна: Велика Британія, Німеччина, Австрія



Кіностудія / кінокомпанія: UK Film Council, Aegis Film Fund, Prescience
Режисер: Фил Трэйл
Актори: Фелісіті Джонс, Ед Вествік, Білл Найї, Брук Шилдс, Темсін Егертон, Софія Буш

Сюжет:
Кім, юна скромниця з англійського містечка, отримує роботу на фешенебельному гірськолижному курорті в Альпах. Їй складно звикнути до нового світу розкоші, розкутості і сніжних рекордів. Але незабаром Кім виявляє в собі талант до спуску на сноуборді і, здається, закохується в симпатичного сина власника курорту, відпочиваючого тут з подругою... Чи зможе Кім пробитися на Кубок Світу з сноуборду з цінним призом для переможниці? І як їй зрозуміти, чи не морочить «золотий хлопчик» їй голову?


Тривалість: 01:32:37
Якість:
Відео:
кодек:
розмір кадру: 1280 х 688
бітрейт: 5729 кб/с

Аудіо # 1:
мова: українська
переклад: професійний дубльований | Line
кодек: 5.1
бітрейт: 448 кб/с

Аудіо # 2:
мова: англійська
переклад: оригінал
кодек: 5.1
бітрейт: 448 кб/с
MediaInfo:
File size : 4.29 GiB
Duration : 1h 32mn
Overall bit rate : 6 625 Kbps
Encoded date : UTC 2012-03-01 14:22:40
Writing application : mkvmerge v5.3.0 ('I could have danced') built on Feb 9 2012 23:25:33
Writing library : libebml v1.2.2 + libmatroska v1.3.0

Video
ID : 1
Format : AVC
Format/Info : Advanced Video Codec
Format profile : [email protected]
Format settings, CABAC : Yes
Format settings, ReFrames : 16 frames
Codec ID : V_MPEG4/ISO/AVC
Duration : 1h 32mn
Bit rate : 5 729 Kbps
Width : 1 280 pixels
Height : 688 pixels
Display aspect ratio : 1.860
Frame rate mode : Variable
Frame rate : 25.000 fps
Color space : YUV
Chroma subsampling : 4:2:0
Bit depth : 8 bits
Scan type : Progressive
Bits/(Pixel*Frame) : 0.260
Stream size : 3.62 GiB (84%)
Title : Release for Hurtom by Zeus62
Writing library : core 112
Encoding settings : cabac=1 / ref=16 / deblock=1:-3:-3 / analyse=0x3:0x113 / me=umh / subme=10 / psy=1 / psy_rd=1,00:0,00 / mixed_ref=1 / me_range=64 / chroma_me=1 / trellis=2 / 8x8dct=1 / cqm=0 / deadzone=21,11 / fast_pskip=1 / chroma_qp_offset=-2 / threads=9 / sliced_threads=0 / nr=0 / decimate=1 / interlaced=0 / constrained_intra=0 / bframes=16 / b_pyramid=2 / b_adapt=2 / b_bias=0 / direct=1 / weightb=1 / open_gop=0 / weightp=2 / keyint=250 / keyint_min=24 / scenecut=40 / intra_refresh=0 / rc_lookahead=50 / rc=2pass / mbtree=1 / bitrate=5729 / ratetol=1,0 / qcomp=0,60 / qpmin=3 / qpmax=51 / qpstep=4 / cplxblur=20,0 / qblur=0,5 / ip_ratio=1,40 / aq=1:1,00
Language : Ukrainian
Default : Yes
Forced : No
Color primaries : BT.709-5, BT.1361, IEC 61966-2-4, SMPTE RP177
Transfer characteristics : BT.709-5, BT.1361
Matrix coefficients : BT.709-5, BT.1361, IEC 61966-2-4 709, SMPTE RP177

Audio #1
ID : 2
Format : AC-3
Format/Info : Audio Coding 3
Mode extension : CM (complete main)
Codec ID : A_AC3
Duration : 1h 32mn
Bit rate mode : Constant
Bit rate : 448 Kbps
Channel(s) : 6 channels
Channel positions : Front: L C R, Side: L R, LFE
Sampling rate : 48.0 KHz
Bit depth : 16 bits
Compression mode : Lossy
Stream size : 297 MiB (7%)
Title : Ukr 5.1 by Zeus62
Language : Ukrainian
Default : Yes
Forced : No

Audio #2
ID : 3
Format : AC-3
Format/Info : Audio Coding 3
Mode extension : CM (complete main)
Codec ID : A_AC3
Duration : 1h 32mn
Bit rate mode : Constant
Bit rate : 448 Kbps
Channel(s) : 6 channels
Channel positions : Front: L C R, Side: L R, LFE
Sampling rate : 48.0 KHz
Bit depth : 16 bits
Compression mode : Lossy
Stream size : 297 MiB (7%)
Language : English
Default : No
Forced : No
log:
[info]: frame I:1191 Avg QP:11,76 size:155607 PSNR Mean Y:51,13 U:54,38 V:53,82 Avg:51,90 Global:51,52
[info]: frame P:32432 Avg QP:14,78 size: 57298 PSNR Mean Y:48,49 U:51,57 V:50,83 Avg:49,20 Global:48,74
[info]: frame B:105295 Avg QP:18,00 size: 18373 PSNR Mean Y:46,69 U:50,60 V:49,65 Avg:47,54 Global:47,20
[info]: consecutive B-frames: 1,6% 3,4% 11,3% 26,9% 22,3% 24,2% 4,6% 2,2% 1,1% 0,8% 0,5% 0,4% 0,2% 0,2% 0,1% 0,2% 0,0%
[info]: mb I I16..4: 8,8% 64,7% 26,5%
[info]: mb P I16..4: 4,1% 18,9% 3,0% P16..4: 29,9% 26,2% 13,8% 0,0% 0,0% skip: 4,2%
[info]: mb B I16..4: 0,8% 2,4% 0,4% B16..8: 36,8% 15,8% 4,1% direct:11,4% skip:28,5% L0:43,8% L1:38,3% BI:17,9%
[info]: 8x8 transform intra:70,7% inter:64,9%
[info]: coded y,uvDC,uvAC intra: 75,3% 72,9% 56,6% inter: 35,8% 32,1% 7,5%
[info]: i16 v,h,dc,p: 54% 25% 5% 17%
[info]: i8 v,h,dc,ddl,ddr,vr,hd,vl,hu: 16% 13% 12% 7% 10% 11% 10% 10% 12%
[info]: i4 v,h,dc,ddl,ddr,vr,hd,vl,hu: 16% 13% 7% 7% 13% 13% 11% 10% 10%
[info]: i8c dc,h,v,p: 42% 24% 23% 11%
[info]: Weighted P-Frames: Y:2,4% UV:1,0%
[info]: ref P L0: 43,1% 11,8% 14,5% 6,0% 5,1% 3,9% 3,4% 2,1% 1,9% 1,5% 1,4% 1,3% 1,2% 1,1% 1,0% 0,8%
[info]: ref B L0: 73,2% 10,4% 4,7% 2,5% 1,9% 1,6% 1,4% 0,9% 0,8% 0,7% 0,6% 0,5% 0,5% 0,3% 0,2%
[info]: ref B L1: 92,5% 7,5%
[info]: SSIM Mean Y:0,9909908 (20,453db)
[info]: PSNR Mean Y:47,147 U:50,861 V:49,963 Avg:47,962 Global:47,539 kb/s:5726,47
Скріншоти:
Original vs Encode






Джерело: Власний ріп +
Подяка Skiff за доріжку Line в 2.0.
Особиста оцінка: 10 - без зайвих вагань рекомендую всім!


 Трекер:    Зареєстрований   

Завантажити / скачати фільм українською



відео для новачків



 Зареєстрований:   2012-03-01 16:56
 Розмір:   4.29 GB 
 Оцінка фільму:   8.6/10 (Голосів: 17)
   
Інші релізи
braveboy 
Відео Гуртом - команда HD
Відео Гуртом - команда HD


З нами з: 15.06.10
Востаннє: 29.10.16
Повідомлень: 958

2012-03-01 21:04  
Zeus62 написано:
Скріншоти:

А скріншоти додати забув Happy

pyatachok 
Координатор літератури


З нами з: 30.01.10
Востаннє: 09.12.16
Повідомлень: 1337

2012-03-01 21:07  
braveboy
Скріни є, принаймі мені видно.)

braveboy 
Відео Гуртом - команда HD
Відео Гуртом - команда HD


З нами з: 15.06.10
Востаннє: 29.10.16
Повідомлень: 958

2012-03-01 21:14  
pyatachok написано:

braveboy
Скріни є, принаймі мені видно.)

то в мене напевно якийсь глюк був

alexshab 
Новенький


З нами з: 03.03.15
Востаннє: 07.12.16
Повідомлень: 18

2015-10-03 15:06  
Ау! Хто роздасть цей суперський фільм?
ALFROMEDA 
Відео Гуртом - підтримка та поширення
Відео Гуртом - підтримка та поширення


З нами з: 09.07.12
Востаннє: 08.12.16
Повідомлень: 212

2015-10-24 12:53  
ппц поверніться. норм качало, тепер застряло на 69%
Ваш часовий пояс: GMT + 2 Години

Нова тема   Відповісти