Завантажити та скачати торренти українською


Міс Ніхто / Miss Nobody (2010) Ukr/Eng

Нові коментарі

Нова тема   Відповісти
Автор Повідомлення
Zetonik-z 
Відео Гуртом - фільмокрай
Відео Гуртом - фільмокрай


З нами з: 16.07.10
Востаннє: 04.12.16
Повідомлень: 220

2012-02-28 08:35  
Міс Ніхто / Miss Nobody (2010) Ukr/Eng

Міс Ніхто / Miss Nobody (2010) Ukr/Eng


Жанр: комедія, кримінальний
Країна: США



Кіностудія / кінокомпанія: Miss Nobody Productions
Режисер: Тім Кокс (Tim Cox)
Актори: Леслі Бібб (Leslie Bibb), Адам Голдберг (Adam Goldberg), Кеті Бейкер (Kathy Baker), Міссі Пайл (Missi Pyle), Брендон Рут (Brandon Routh) та інші

Сюжет:
Сарі Джейн 30 років, вона звичайна офісна "сіра миша": працює секретаркою у фармацевтичній корпорації і мріє піднятися хоча б на сходинку вище по кар'єрній драбині. Підробивши резюме, Сарі вдається зайняти вакансію топ-менеджера, але — всього лише на один день: моторні колеги теж вміють плести інтриги!

Новий начальник розкриває Сарі нехитру таємницю кар'єрного росту: необхідно "всього лише" позбавиться від п'ятьох топ-менеджерів компанії. І тут Сарі Джейн приходить в голову вельми нетривіальний план. Дівчині залишилося всього лише повірити, що вона не "офісний планктон", а природжена і винахідлива... вбивця.


Тривалість: 01:30:08
Якість:
Відео:
кодек: DivX 6.9.2
розмір кадру: 720 x 304
бітрейт: 1654 кб/с

Аудіо # 1:
мова: українська
переклад: двоголосий закадровий
кодек: 2.0
бітрейт: 192 кб/с

Аудіо # 2:
мова: англійська
переклад: оригінал
кодек: 5.1
бітрейт: 448 кб/с

Джерело озвучення:


Скріншоти


MediaInfo
Video
ID : 0
Format : MPEG-4 Visual
Format settings, BVOP : Yes
Format settings, QPel : No
Format settings, GMC : No warppoints
Format settings, Matrix : Default (H.263)
Codec ID : DX50
Codec ID/Hint : DivX 5
Duration : 1h 30mn
Bit rate : 1 654 Kbps
Width : 720 pixels
Height : 304 pixels
Display aspect ratio : 2.35:1
Frame rate : 24.000 fps
Color space : YUV
Chroma subsampling : 4:2:0
Bit depth : 8 bits
Scan type : Progressive
Bits/(Pixel*Frame) : 0.315
Stream size : 1.04 GiB (72%)
Writing library : DivX 6.8.5 (UTC 2009-08-20)

Audio #1
ID : 1
Format : AC-3
Format/Info : Audio Coding 3
Mode extension : CM (complete main)
Codec ID : 2000
Duration : 1h 30mn
Bit rate mode : Constant
Bit rate : 192 Kbps
Channel(s) : 2 channels
Channel positions : Front: L R
Sampling rate : 48.0 KHz
Bit depth : 16 bits
Stream size : 124 MiB (8%)
Alignment : Split accross interleaves
Interleave, duration : 42 ms (1.00 video frame)
Interleave, preload duration : 500 ms

Audio #2
ID : 2
Format : AC-3
Format/Info : Audio Coding 3
Mode extension : CM (complete main)
Codec ID : 2000
Duration : 1h 30mn
Bit rate mode : Constant
Bit rate : 448 Kbps
Channel(s) : 6 channels
Channel positions : Front: L C R, Side: L R, LFE
Sampling rate : 48.0 KHz
Bit depth : 16 bits
Stream size : 289 MiB (19%)
Alignment : Split accross interleaves
Interleave, duration : 42 ms (1.00 video frame)
Interleave, preload duration : 500 ms


Подяка akon111, за звукозапис з ТБ
Джерело:
Особиста оцінка: Ще не дивився


 Трекер:    Зареєстрований   

Завантажити / скачати фільм українською



відео для новачків



 Зареєстрований:   2012-02-28 08:35
 Розмір:   1.45 GB 
 Оцінка фільму:   8.4/10 (Голосів: 29)
 Міс Ніхто / Miss Nobody (2010) BDRip Ukr/Eng
   
Інші релізи
   Міс Ніхто / Miss Nobody (2010) Ukr/Eng vamp69  4 / 0   1.7 GB   2012-06-15 20:18 
bilenkuyboy 
Відео Гуртом - дизайнер
Відео Гуртом - дизайнер


З нами з: 17.06.08
Востаннє: 09.12.16
Повідомлень: 1582

2012-02-28 10:28  
Варто дивитися фільм?
Kristinka_Sone4ko 
Частий відвідувач


З нами з: 30.10.09
Востаннє: 25.11.16
Повідомлень: 40

2012-02-28 10:30  
Хтось вже дивився цей фільм?? Напишіть будь ласка відгуки
akon111 
Відео Гуртом - запис з ТБ
Відео Гуртом - запис з ТБ


З нами з: 28.08.09
Востаннє: 09.12.16
Повідомлень: 1208

2012-02-28 21:35  
дві "с" має бути у слові Miss (Місс)
Skiff 
музика
музика


З нами з: 12.11.07
Востаннє: 09.12.16
Повідомлень: 3051

2012-02-28 21:41  
akon111 
Відео Гуртом - запис з ТБ
Відео Гуртом - запис з ТБ


З нами з: 28.08.09
Востаннє: 09.12.16
Повідомлень: 1208

2012-02-28 21:43  
я це знаю..
west 
Поважний учасник


З нами з: 03.03.09
Востаннє: 08.12.16
Повідомлень: 165

2012-02-29 09:52  
Як на мене, кіно таке собі, нічого особливого, часом навіть досить нудно 3/10
Loter 
Свій


З нами з: 17.04.09
Востаннє: 09.12.16
Повідомлень: 88

2012-02-29 14:44  
мені воно не здалося нудним. такий собі не нав'язливий розробляючий фільм для вечірнього перегляду без складного, заплутаного сценарію. присутній так званий чорний гумор, але без нецензурної лексики.
мені сподобалося.

HetmanNet 
VIP


З нами з: 20.03.09
Востаннє: 09.12.16
Повідомлень: 429

2012-03-04 14:06  
9/10 Фільм цікавий, хоча трохи незвично сюжет висвітлюється, в стилі щоденника, як розповідь головного героя. Скажу одразу він не для любителів спецефектів, екшену і т.д. Сюжет нескладний, бо це послідовна оповідь, але передбачити всі моменти не можливо, бо ти починаєш бачити все що відбувається з точки зору головної героїні, і ти самим забуваєш про інші варіанти. Тобто це не Шерлок Холмс, який аналізує кожну дрібничку і вибудовує складні теорії, а спроба простої людини розібратися в тому що відбувається.
muestro 
Відео Гуртом - фільмокрай
Відео Гуртом - фільмокрай


З нами з: 28.10.09
Востаннє: 05.12.16
Повідомлень: 864

2012-06-13 16:05  
на Якабу сьогодні появився цей фільм зі звуком Dolby Digital 5.1
Віктор 
Відео Гуртом - субтитрування
Відео Гуртом - субтитрування


З нами з: 09.01.10
Востаннє: 09.12.16
Повідомлень: 8664

2012-06-13 19:14  
DVO написано:
на Якабу сьогодні появився цей фільм зі звуком Dolby Digital 5.1

Круто, по ходу там інша озвучка має бути.

karvai0 
Відео Гуртом - запис з ТБ
Відео Гуртом - запис з ТБ


З нами з: 18.01.10
Востаннє: 09.09.16
Повідомлень: 3686

2012-06-14 17:46  
w2958l
інша озвучка

eXteSy- 
VIP


З нами з: 06.04.09
Востаннє: 10.12.16
Повідомлень: 1456

2014-01-18 17:11  
Фільм не сподобався. Комедія ситуацій, яка б і мала створювати весь гумор фільму, прописана невдало.
3/10

Shukh 
Свій


З нами з: 20.08.11
Востаннє: 07.12.16
Повідомлень: 148

2014-01-30 19:51  
доволі цікавий, але місцями дурнуватий фільм.
7/10

Ваш часовий пояс: GMT + 2 Години

Нова тема   Відповісти