Завантажити та скачати торренти українською


Кабельник / The Cable Guy (1996) 720p Ukr/Eng | Sub Eng

Нові коментарі

Нова тема   Відповісти
Автор Повідомлення
Zeus62 
Відео Гуртом - команда HD
Відео Гуртом - команда HD


З нами з: 29.12.08
Востаннє: 16.11.16
Повідомлень: 330

2012-02-28 02:43  
Кабельник / The Cable Guy (1996) 720p Ukr/Eng | Sub Eng

Кабельник / The Cable Guy (1996) 720p Ukr/Eng | Sub Eng


Жанр: комедія, драма
Країна: США



Кіностудія / кінокомпанія: Columbia Pictures Corporation, Licht/Mueller Film Corporation
Режисер: Бен Стіллер
Актори: Джим Керрі, Метью Бродерік, Леслі Манн, Джек Блек, Джордж Сігал, Дайан Бейкер, Бен Стіллер, Ерік Роберц, Джанін Ґарофало, Енді Дік, Гаррі О'Рейлі, Девід Крос, Емі Стіллер, Овен Bілсон, Кіт Ґіббс

Сюжет:
Головного героя одного разу виручив кабельник, але з того часу цей балакучий хлопець став його прокляттям: він безцеремонно лізе в чуже життя, бо хоче мати друга. Проблема у тому, що уявлення про справжню дружбу у нього телесеріальні... Це був перший фільм, за який Керрi заплатили 20 мільйонів, i перша його робота після п'яти хітів поспіль ("Маска", "Тупий та ще тупіший","Бетмен назавжди" та два "Ейса Вентури"), яка не зовсім виправдала сподівання (з комерційного боку). Досить важко говорити про будь-яку серйозну тему у творчості Джима, не викликаючи при цьому сміху, але якщо така все ж таки є, то це телебачення (в молоді роки комiк багато працював там), його вплив на свідомість людей і межі, які воно не повинно переступати. Маємо таку низку: спочатку Ріддлер з "Бетмена назавжди", який за допомогою "ящика" крав мізки у громадян, потім Кабельник, який живе, наслідуючи телеприклади, і, нарешті, справжня перлина - "Шоу Трумена".


Тривалість: 01:35:45
Якість:
Відео:
кодек:
розмір кадру: 1280 х 536
бітрейт: 6047 кб/с

Аудіо # 1:
мова: українська
переклад: багатоголосий закадровий
кодек: 2.0
бітрейт: 192 кб/с

Аудіо # 2:
мова: англійська
переклад: оригінал
кодек: 5.1
бітрейт: 384 кб/с

Субтитри:
мова: англійська
тип: програмні (м'які)
формат: *.srt
MediaInfo:
File size : 4.43 GiB
Duration : 1h 35mn
Overall bit rate : 6 618 Kbps
Encoded date : UTC 2012-02-28 00:19:40
Writing application : mkvmerge v5.3.0 ('I could have danced') built on Feb 9 2012 23:25:33
Writing library : libebml v1.2.2 + libmatroska v1.3.0

Video
ID : 1
Format : AVC
Format/Info : Advanced Video Codec
Format profile : [email protected]
Format settings, CABAC : Yes
Format settings, ReFrames : 16 frames
Codec ID : V_MPEG4/ISO/AVC
Duration : 1h 35mn
Bit rate : 6 047 Kbps
Width : 1 280 pixels
Height : 536 pixels
Display aspect ratio : 2.40:1
Frame rate mode : Variable
Frame rate : 23.976 fps
Color space : YUV
Chroma subsampling : 4:2:0
Bit depth : 8 bits
Scan type : Progressive
Bits/(Pixel*Frame) : 0.368
Stream size : 3.95 GiB (89%)
Title : For Hurtom by Zeus62
Writing library : core 112
Encoding settings : cabac=1 / ref=16 / deblock=1:-3:-3 / analyse=0x3:0x113 / me=umh / subme=10 / psy=1 / psy_rd=1,00:0,00 / mixed_ref=1 / me_range=64 / chroma_me=1 / trellis=2 / 8x8dct=1 / cqm=0 / deadzone=21,11 / fast_pskip=1 / chroma_qp_offset=-2 / threads=9 / sliced_threads=0 / nr=0 / decimate=1 / interlaced=0 / constrained_intra=0 / bframes=16 / b_pyramid=2 / b_adapt=2 / b_bias=0 / direct=1 / weightb=1 / open_gop=0 / weightp=2 / keyint=240 / keyint_min=23 / scenecut=40 / intra_refresh=0 / rc_lookahead=50 / rc=2pass / mbtree=1 / bitrate=6047 / ratetol=1,0 / qcomp=0,60 / qpmin=3 / qpmax=51 / qpstep=4 / cplxblur=20,0 / qblur=0,5 / ip_ratio=1,40 / aq=1:1,00
Language : Ukrainian
Default : Yes
Forced : No
Color primaries : BT.709-5, BT.1361, IEC 61966-2-4, SMPTE RP177
Transfer characteristics : BT.709-5, BT.1361
Matrix coefficients : BT.709-5, BT.1361, IEC 61966-2-4 709, SMPTE RP177

Audio #1
ID : 2
Format : AC-3
Format/Info : Audio Coding 3
Mode extension : CM (complete main)
Codec ID : A_AC3
Duration : 1h 35mn
Bit rate mode : Constant
Bit rate : 192 Kbps
Channel(s) : 2 channels
Channel positions : Front: L R
Sampling rate : 48.0 KHz
Bit depth : 16 bits
Compression mode : Lossy
Stream size : 132 MiB (3%)
Title : Інтер
Language : Ukrainian
Default : Yes
Forced : No

Audio #2
ID : 3
Format : AC-3
Format/Info : Audio Coding 3
Mode extension : CM (complete main)
Codec ID : A_AC3
Duration : 1h 35mn
Bit rate mode : Constant
Bit rate : 384 Kbps
Channel(s) : 6 channels
Channel positions : Front: L C R, Side: L R, LFE
Sampling rate : 48.0 KHz
Bit depth : 16 bits
Compression mode : Lossy
Stream size : 263 MiB (6%)
Language : English
Default : No
Forced : No

Text
ID : 4
Format : UTF-8
Codec ID : S_TEXT/UTF8
Codec ID/Info : UTF-8 Plain Text
Language : English
Default : No
Forced : No
log:
[info]: frame I:858 Avg QP:15,18 size:122740 PSNR Mean Y:47,61 U:48,90 V:50,17 Avg:48,14 Global:47,71
[info]: frame P:27187 Avg QP:18,57 size: 53043 PSNR Mean Y:44,65 U:46,37 V:48,41 Avg:45,34 Global:44,81
[info]: frame B:109713 Avg QP:20,98 size: 25436 PSNR Mean Y:43,02 U:45,31 V:47,87 Avg:43,86 Global:43,43
[info]: consecutive B-frames: 0,7% 1,8% 4,9% 18,8% 18,2% 31,6% 9,1% 8,6% 2,5% 1,0% 0,8% 1,1% 0,3% 0,2% 0,1% 0,1% 0,0%
[info]: mb I I16..4: 5,1% 78,4% 16,6%
[info]: mb P I16..4: 0,8% 14,3% 1,4% P16..4: 32,6% 28,1% 17,3% 0,0% 0,0% skip: 5,6%
[info]: mb B I16..4: 0,1% 2,8% 0,2% B16..8: 42,2% 16,7% 6,3% direct: 8,2% skip:23,5% L0:46,2% L1:42,5% BI:11,3%
[info]: 8x8 transform intra:87,8% inter:61,5%
[info]: coded y,uvDC,uvAC intra: 94,0% 92,9% 82,2% inter: 42,4% 35,1% 16,2%
[info]: i16 v,h,dc,p: 51% 15% 10% 24%
[info]: i8 v,h,dc,ddl,ddr,vr,hd,vl,hu: 11% 7% 10% 10% 14% 13% 12% 11% 12%
[info]: i4 v,h,dc,ddl,ddr,vr,hd,vl,hu: 14% 8% 4% 9% 15% 14% 13% 11% 12%
[info]: i8c dc,h,v,p: 53% 15% 14% 18%
[info]: Weighted P-Frames: Y:4,6% UV:3,0%
[info]: ref P L0: 37,0% 8,0% 17,9% 7,4% 6,6% 4,6% 4,4% 2,3% 2,3% 1,7% 1,8% 1,4% 1,4% 1,2% 1,3% 0,8%
[info]: ref B L0: 62,4% 13,0% 6,9% 4,0% 2,9% 2,5% 2,0% 1,3% 1,1% 1,0% 0,8% 0,8% 0,7% 0,4% 0,2%
[info]: ref B L1: 90,5% 9,5%
[info]: SSIM Mean Y:0,9710543 (15,384db)
[info]: PSNR Mean Y:43,372 U:45,538 V:47,990 Avg:44,176 Global:43,688 kb/s:6040,07
Скріншоти:
Original vs Encode






Джерело: Власний ріп +
Подяка karvai0 за українську доріжку та Soyer за постер.
Особиста оцінка: 10 - без зайвих вагань рекомендую всім!


Срібний реліз (на рейтинг впливає 50% завантаженого)
 Трекер:    Зареєстрований   

Завантажити / скачати фільм українською



відео для новачків



 Зареєстрований:   2012-02-28 02:43
 Розмір:   4.43 GB 
 Оцінка фільму:   9.4/10 (Голосів: 8)
   
Інші релізи
   Кабельник / The Cable Guy (1996) [640x270] apvAltisimo  0 / 0   827 MB   2014-05-02 22:26 
   Кабельник / The Cable Guy (1996) 1080p Ukr/Eng | Sub Eng ratbol  1 / 0   10.75 GB   2012-08-20 16:28 
   Кабельник / The Cable Guy (1996) Ukr | Sub Eng karvai0  6 / 0   1.32 GB   2012-02-22 18:38 
chidorisaske 
Свій


З нами з: 05.06.11
Востаннє: 20.11.16
Повідомлень: 84

2012-02-28 14:46  
Дякую, але чому не зробили звук 5.1?(
oles777 
Новенький


З нами з: 28.02.11
Востаннє: 27.07.15
Повідомлень: 2

2012-07-08 22:27  
колись показували по 1+1 немає від них озвучки?
Ваш часовий пояс: GMT + 2 Години

Нова тема   Відповісти