Завантажити та скачати торренти українською


Сім душ / Seven Pounds (2008) 720p Ukr/Eng | Sub Eng

Нові коментарі

Нова тема   Відповісти
Автор Повідомлення
braveboy 
Відео Гуртом - команда HD
Відео Гуртом - команда HD


З нами з: 15.06.10
Востаннє: 29.10.16
Повідомлень: 958

2012-02-27 07:42  

Сім душ / Seven Pounds (2008) 720p Ukr/Eng | Sub Eng




«Вони не знайомі. У них різні долі. Але у них одна таємниця. »


Жанр: психологічна драма, трилер
Країна: США



Кіностудія / кінокомпанія: Relativity Media Overbrook Entertainment Escape Artists
Режисер: Габріеле Муччіно
Актори: Уілл Сміт, Розаріо Доусон, Вуді Харрельсон, Майкл Ілі, Беррі Пеппер, Елпідія Каррільо

Дата виходу США: 19 грудня 2008
Дата виходу Україна: 15 січня 2009
Кошторис: $55,000,000
Касові збори: $168,167,691

Сюжет:
Бен – торгівельний агент, який марнує своє життя на те, аби жалкувати за минулим. Перебуваючи в постійній депресії, він котиться на самісіньке дно, однак в його житті з’являється промінь світла в особі милої Емілі, яка ще раз доводить Бену і всьому світу, що кохання здатне творити дива.
Допомагаючи 7 незнайомим людям, Бен знайде себе. Бог створив світ за 7 днів, що за цей час може зробити людина?



Тривалість: 02:03:05
Якість: 720p
Відео:
кодек:
розмір кадру: 1280 х 532
бітрейт: 6092 кб/с

Аудіо # 1:
мова: українська
переклад: професійний дубльований
кодек: 5.1
бітрейт: 640 кб/с

Аудіо # 2:
мова: англійська
переклад: оригінал
кодек: 5.1
бітрейт: 1536 кб/с

Джерело озвучення:


Субтитри:
мова: англійська
тип: програмні (м'які)
формат: *.srt
MediaInfo
General
Unique ID : 225165808561446670768165774052883488971 (0xA9655B7910CF38659F9D4AC527D8E0CB)
Complete name : E:\Temp\Seven Pounds (2008) [Ukr,Eng Sub Eng] 720p [HURTOM].mkv
Format : Matroska
Format version : Version 2
File size : 7.09 GiB
Duration : 2h 3mn
Overall bit rate : 8 244 Kbps
Encoded date : UTC 2012-02-27 05:10:03
Writing application : mkvmerge v5.0.1 ('Es ist Sommer') built on Oct 9 2011 11:55:43
Writing library : libebml v1.2.2 + libmatroska v1.3.0
Attachment : Yes / Yes / Yes

Video
ID : 1
Format : AVC
Format/Info : Advanced Video Codec
Format profile : [email protected]
Format settings, CABAC : Yes
Format settings, ReFrames : 8 frames
Codec ID : V_MPEG4/ISO/AVC
Duration : 2h 3mn
Bit rate : 6 092 Kbps
Width : 1 280 pixels
Height : 532 pixels
Display aspect ratio : 2.40:1
Frame rate : 23.976 fps
Color space : YUV
Chroma subsampling : 4:2:0
Bit depth : 8 bits
Scan type : Progressive
Bits/(Pixel*Frame) : 0.373
Stream size : 5.10 GiB (72%)
Title : Seven Pounds (2008) 720p
Writing library : core 67 r1129M c109c8e
Encoding settings : cabac=1 / ref=8 / deblock=1:-3:-3 / analyse=0x3:0x133 / me=umh / subme=9 / psy_rd=1.0:0.0 / mixed_ref=1 / me_range=36 / chroma_me=1 / trellis=2 / 8x8dct=1 / cqm=0 / deadzone=21,11 / chroma_qp_offset=-2 / threads=6 / nr=0 / decimate=1 / mbaff=0 / bframes=4 / b_pyramid=1 / b_adapt=2 / b_bias=0 / direct=3 / wpredb=1 / keyint=250 / keyint_min=25 / scenecut=40 / rc=2pass / bitrate=6092 / ratetol=1.0 / qcomp=0.60 / qpmin=10 / qpmax=51 / qpstep=4 / cplxblur=20.0 / qblur=0.5 / ip_ratio=1.40 / pb_ratio=1.30 / aq=1:0.60
Language : English
Default : Yes
Forced : No

Audio #1
ID : 2
Format : AC-3
Format/Info : Audio Coding 3
Mode extension : CM (complete main)
Codec ID : A_AC3
Duration : 2h 3mn
Bit rate mode : Constant
Bit rate : 640 Kbps
Channel(s) : 6 channels
Channel positions : Front: L C R, Side: L R, LFE
Sampling rate : 48.0 KHz
Bit depth : 16 bits
Compression mode : Lossy
Stream size : 563 MiB (8%)
Title : 5.1 @ 640 kbps [Blu-ray CEE]
Language : Ukrainian
Default : Yes
Forced : No

Audio #2
ID : 3
Format :
Format/Info : Digital Theater Systems
Codec ID : A_DTS
Duration : 2h 3mn
Bit rate mode : Constant
Bit rate : 1 510 Kbps
Channel(s) : 6 channels
Channel positions : Front: L C R, Side: L R, LFE
Sampling rate : 48.0 KHz
Bit depth : 24 bits
Compression mode : Lossy
Stream size : 1.30 GiB (18%)
Title : 5.1 @ 1536 kbps
Language : English
Default : No
Forced : No

Text
ID : 4
Format : UTF-8
Codec ID : S_TEXT/UTF8
Codec ID/Info : UTF-8 Plain Text
Title : Full
Language : English
Default : No
Forced : No
Скріншоти


Джерело:
Особиста оцінка: 0 - не дивився


 Трекер:    Зареєстрований   

Завантажити / скачати фільм українською



відео для новачків



 Зареєстрований:   2012-02-27 07:43
 Розмір:   7.09 GB 
 Оцінка фільму:   9.9/10 (Голосів: 27)
   
Інші релізи
   Сім душ / Сім життів / Seven Pounds (2008) 2xUkr patriot2305  4 / 0   2.18 GB   2015-01-25 13:59 
   Сім душ / Seven Pounds (2008) 720p-mini Drool  0 / 0   2.29 GB   2012-06-25 12:15 
Прокурор 
VIP


З нами з: 24.06.13
Востаннє: 06.12.16
Повідомлень: 343

2014-06-09 23:39  
непоганий сюжет, але дуже сумне кіноSad (1)
Wizard_Harry 
Свій


З нами з: 11.10.13
Востаннє: 07.12.16
Повідомлень: 111

2015-02-19 19:34  
Один з небагатьох фільмів, де впустив сльозу, безперечно дякую
Avsel 
Свій


З нами з: 30.04.08
Востаннє: 18.11.16
Повідомлень: 57

2016-02-27 13:09  
Неймовірний, добрий але сумний фільм.
uduvgp 
Новенький


З нами з: 09.01.13
Востаннє: 06.12.16
Повідомлень: 7

2016-04-04 02:59  
Фільм прекрасний.

Після The Pursuit of Happyness і цього фільму поважаю Сміта як чудового актора.

Ваш часовий пояс: GMT + 2 Години

Нова тема   Відповісти