Завантажити та скачати торренти українською


Прилипчани - Прилипчани. Проект "Моя Україна. Берви" (2010) [FLAC] | Folk

Нові коментарі

Нова тема   Відповісти
Автор Повідомлення
gosha.samovar 
VIP


З нами з: 08.09.10
Востаннє: 02.12.16
Повідомлень: 400

2012-02-26 19:03  
Прилипчани - Прилипчани. Проект "Моя Україна. Берви" (2010) [FLAC] | Folk


Стиль: Folk
Країна, місто: Україна, Буковина
Видавець: Арт-Велес

Виконавці:

    Спиридон Прилипчан (1928-2007) - 6 (розповідь легенди); 02, 07, 10, 14, 17 (супровід до співу); "перша" скрипка в ансамблях.
    Кирило Прилипчан (1919-2003) - 1 (соло скрипки); "друга" скрипка в ансамблях.
    Лука Прилипчан (1926-1994) - 17 (заспівувач - "береза"); "третя" скрипка в ансамблях.
    Марія Прилипчан (1931 р. н.) - 02, 07, 10, 14 (спів).


Пісні:
    01. Як вівці йдуть у полонину
    02. Зашуміла й Буковинка
    03. Николаєва
    04. Кошутова игра
    05. Юдзькова игра
    06. Як закопували опришки гроші
    07. Волики-сірманики
    08. Горіховий лист (Фрунза нукулуй)
    09. Игра Спиридона Прилипчана
    10. Співаночки мої любі
    11. Обрядова весільна "до повниці"
    12. Гуцулка "до слухання"
    13. Курилова игра
    14. Ой, курочко-рєбушечко
    15. Трісунка білинська
    16. Царанянська (Батута)
    17. Ой дай Бо...[же]
EAC log
Exact Audio Copy V1.0 beta 3 from 29. August 2011

Отчёт EAC об извлечении, выполненном 26. февраля 2012, 17:19

Прилипчани / Прилипчани

Дисковод: PHILIPS SPD2519T Adapter: 2 ID: 0

Режим чтения : Достоверность
Использование точного потока : Да
Отключение кэша аудио : Да
Использование указателей C2 : Нет

Коррекция смещения при чтении : 6
Способность читать области Lead-in и Lead-out : Нет
Заполнение пропущенных сэмплов тишиной : Да
Удаление блоков с тишиной в начале и конце : Нет
При вычислениях CRC использовались нулевые сэмплы : Да
Интерфейс : Встроенный Win32-интерфейс для Win NT/2000

Выходной формат : Пользовательский кодировщик
Выбранный битрейт : 1024 kBit/s
Качество : Высокий
Добавление ID3-тега : Нет
Утилита сжатия : D:\soft_2\EAC\Exact Audio Copy\Flac\flac.exe
Дополнительные параметры : -V -8 -T "Date=%year%" -T "Genre=%genre%" %source%

TOC извлечённого CD

Трек | Старт | Длительность | Начальный сектор | Конечный сектор
---------------------------------------------------------------------
1 | 0:00.00 | 2:14.61 | 0 | 10110
2 | 2:14.61 | 2:16.54 | 10111 | 20364
3 | 4:31.40 | 11:33.06 | 20365 | 72345
4 | 16:04.46 | 2:11.37 | 72346 | 82207
5 | 18:16.08 | 2:30.65 | 82208 | 93522
6 | 20:46.73 | 4:47.29 | 93523 | 115076
7 | 25:34.27 | 1:52.21 | 115077 | 123497
8 | 27:26.48 | 4:02.69 | 123498 | 141716
9 | 31:29.42 | 2:03.15 | 141717 | 150956
10 | 33:32.57 | 1:02.18 | 150957 | 155624
11 | 34:35.00 | 1:58.39 | 155625 | 164513
12 | 36:33.39 | 2:12.24 | 164514 | 174437
13 | 38:45.63 | 3:43.25 | 174438 | 191187
14 | 42:29.13 | 1:37.56 | 191188 | 198518
15 | 44:06.69 | 2:33.05 | 198519 | 209998
16 | 46:39.74 | 1:56.65 | 209999 | 218763
17 | 48:36.64 | 3:47.59 | 218764 | 235847

Характеристики диапазона извлечения и сообщения об ошибках

Выбранный диапазон

Имя файла E:\Музіка!\from EAC\Прилипчани - Прилипчани.wav

Пиковый уровень 77.6 %
Скорость извлечения 7.3 X
Качество диапазона 100.0 %
CRC теста 6944E650
CRC копии 6944E650
Копирование... OK

Ошибок не произошло

AccurateRip: сводка

Трек 1 отсутствует в базе данных
Трек 2 отсутствует в базе данных
Трек 3 отсутствует в базе данных
Трек 4 отсутствует в базе данных
Трек 5 отсутствует в базе данных
Трек 6 отсутствует в базе данных
Трек 7 отсутствует в базе данных
Трек 8 отсутствует в базе данных
Трек 9 отсутствует в базе данных
Трек 10 отсутствует в базе данных
Трек 11 отсутствует в базе данных
Трек 12 отсутствует в базе данных
Трек 13 отсутствует в базе данных
Трек 14 отсутствует в базе данных
Трек 15 отсутствует в базе данных
Трек 16 отсутствует в базе данных
Трек 17 отсутствует в базе данных

Ни одного трека нет в базе AccurateRip

Конец отчёта

==== Контрольная сумма отчёта 23605B33E7A1CCBDB29D2A275A994993DCB5ABCC0DDBBD05B8B05820178DBF46 ====
Спектр
Тривалість: 00:51:51
Мова: українська (02, 06, 07, 10, 14), відсутня (01, 03-05, 08, 09, 11-13, 15-17) )
Аудіо-кодек: FLAC
Бітрейт: 780 кб/с
Джерело: власний ріп власного CD
Додаткова інформація
umka.com.ua:

"Феномен однорідної (скрипкової) терцетної гри братів Спиридона, Кирила та Луки Пилипчанів витає над Україною (і – ширше – над світом) відтоді, як наприкінці 70-х зусиллями ще молодого тоді фольклориста І. Мацієвського побачила світ грамплатівка на відомій фірмі "Мелодія". Поруч із славетною традицією підголосково-поліфонічного співу полтавської Крячківки вона явила світові не менш оригінальний і невідомий до того первісно-синкретичний принцип інструментально-гуртового музикування – ансамблеву гру на трьох скрипках.

Синкретична конкретика цієї музики підтверджує, що традиція українських гуцулів, покутян та західних подолян, збагачена традиційною стилістикою Балкан і Альп, Татр і Карпатських Бескидів, а також орієнталізмами (за переконанням К. Квітки, вони йшли до нас не тільки кримським шляхом, але й через Європу), породила дивовижну естетику високорозвиненого скрипкового народного професіоналізму." Михайло Хай, доктор мистецтвознавства, професор

Інформація з поліграфії до CD.
Якщо Ви справді бажаєте підтримати українське - після прослуховування, якщо музика вам сподобалась, придбайте ліцензійний диск. Підтримаймо вітчизняних виконавців!


Срібний реліз (на рейтинг впливає 50% завантаженого)
 Трекер:    Зареєстрований   

Завантажити / скачати українську музику



відео для новачків



 Зареєстрований:   2012-02-26 19:03
 Розмір:   431 MB 
 Оцінка музики:   10/10 (Голосів: 4)
   
ssTAss 
Модератор музики


З нами з: 05.07.08
Востаннє: 03.12.16
Повідомлень: 10930

2012-02-26 19:20  
gosha.samovar написано:
Прилипчани - Прилипчани (2010) [FLAC] | Folk

може варто в назві дати назву проекту?
ось так
Прилипчани - Прилипчани. Проект "Моя Україна. Берви" (2010) [FLAC] | Folk
що скажете?

gosha.samovar 
VIP


З нами з: 08.09.10
Востаннє: 02.12.16
Повідомлень: 400

2012-02-26 19:42  
Я можу. Але така назва проекту зустрічається не лише на цьому диску. У мене, здається, таких 4 чи 5 шт. Ось, наприклад: http://toloka.to/t31218#395876
Слово за Вами.

Ваш часовий пояс: GMT + 2 Години

Нова тема   Відповісти