Завантажити та скачати торренти українською


Гурт "Забава" - фестиваль "Мамина піч" (2010) DVDRemux

Нові коментарі

Нова тема   Відповісти
Автор Повідомлення
AVBHS 
Поважний учасник


З нами з: 01.01.09
Востаннє: 18.11.16
Повідомлень: 180

2012-02-26 05:00  
Гурт "Забава" - фестиваль "Мамина піч" (2010) DVDRemux



Стиль: Жартівливі
Країна, місто: смт. Скала-Подільська, Борщівський р-н, Тернопільщина
Керівник: Наталя Фаліон
Історія: Народний колектив "Бабине літо"

Тривалість: 00:37:39
Якість:
Відео:
кодек: MPEG-2 DVD
розмір кадру: 720 х 576
бітрейт: 5873 кб/с

Аудіо:
мова: українська
кодек: 2.0
бітрейт: 448 кб/с

Опис:
Нова колоритна відео робота від популярного тернопільського гурту "Забава" та Наталі Фаліон.
Справжній український національний продукт, який вдало та абсолютно чітко змальовує атмосферу українського побуту. Гумористична творча робота носить неповторний традиційний український характер: українське село, вітчизняне авто, етно-одяг, вишиванки та звичайно ж, неповторні музичні нотки та комедійний сюжет - все це робить відео-роботу дивовижною та унікальною в своєму роді.
Творчість гурту "Забава", їх пісні та музика, мелодійні твори, які стануть в нагоді не лише для святкувань різноманітних подій та заходів, таких як весілля, ювілеї тощо, але й відмінно підійдуть для щоденного прослуховування, для підняття настрою.
Список пісень

01 - А в селі
02 - Зібрались бабоньки
03 - Ірен, моя Ірен
04 - Ой, ти мій герой
05 - Лісапед
06 - I love you
07 - Коза гасає по ріллі
08 - Я неначе ураган
09 - Реп
Скріншоти
МедіаІнфо
General
Unique ID : 177715782377163416342680282170135253535 (0x85B2D08F546A9870BE99A41F9889921F)
Complete name : Гурт Забава.mkv
Format : Matroska
Format version : Version 2
File size : 1.70 GiB
Duration : 37mn 39s
Overall bit rate mode : Variable
Overall bit rate : 6 449 Kbps
Movie name : Гурт Забава
Encoded date : UTC 2012-02-25 21:07:32
Writing application : mkvmerge v5.3.0 ('I could have danced') built on Feb 9 2012 10:38:07
Writing library : libebml v1.2.3 + libmatroska v1.3.0

Video
ID : 1
Format : MPEG Video
Format version : Version 2
Format profile : [email protected]
Format settings, BVOP : No
Format settings, Matrix : Custom
Codec ID : V_MPEG2
Codec ID/Info : MPEG 1 or 2 Video
Duration : 37mn 39s
Bit rate mode : Variable
Bit rate : 5 873 Kbps
Maximum bit rate : 9 800 Kbps
Width : 720 pixels
Height : 576 pixels
Display aspect ratio : 4:3
Frame rate : 25.000 fps
Standard : PAL
Color space : YUV
Chroma subsampling : 4:2:0
Bit depth : 8 bits
Scan type : Interlaced
Scan order : Top Field First
Compression mode : Lossy
Bits/(Pixel*Frame) : 0.566
Stream size : 1.54 GiB (91%)
Title : Гурт Забава
Default : Yes
Forced : No

Audio
ID : 2
Format : AC-3
Format/Info : Audio Coding 3
Mode extension : CM (complete main)
Codec ID : A_AC3
Duration : 37mn 39s
Bit rate mode : Constant
Bit rate : 448 Kbps
Channel(s) : 2 channels
Channel positions : Front: L R
Sampling rate : 48.0 KHz
Bit depth : 16 bits
Compression mode : Lossy
Stream size : 121 MiB (7%)
Title : Гурт Забава
Language : Ukrainian
Default : Yes
Forced : No

Menu
00:00:00.000 : uk:А в селі
00:02:54.000 : uk:Зібрались бабоньки
00:06:56.000 : uk:Ірен, моя Ірен
00:11:46.000 : uk:Ой, ти мій герой
00:17:18.000 : uk:Лісапед
00:21:28.000 : uk:I love you
00:24:11.000 : uk:Коза гасає по ріллі
00:29:35.000 : uk:Я неначе ураган
00:34:24.000 : uk:Реп
Джерело:
Особиста оцінка: 10 - без зайвих вагань рекомендую всім, хто любить добру українську забаву!


Золотий реліз (завантажене не впливає на рейтинг)
 Трекер:    Зареєстрований   

Завантажити / скачати кліп українською



відео для новачків



 Зареєстрований:   2012-02-26 05:00
 Розмір:   1.7 GB 
 Оцінка кліпу:   9.9/10 (Голосів: 32)
   
stas23 
Новенький


З нами з: 16.05.12
Востаннє: 16.05.12
Повідомлень: 1

2012-05-16 11:45  
народ!
станьте хтось на роздачу будь ласка!

mashaslota 
Новенький


З нами з: 23.06.12
Востаннє: 23.06.12
Повідомлень: 1

2012-06-23 20:01  
Станьте будь-ласка на роздачу! потрібно дуже терміново!!!!
malinovskiye 
Новенький


З нами з: 06.02.13
Востаннє: 06.02.13
Повідомлень: 1

2013-02-06 16:48  
10 баллов
Alesandrovnn 
Новенький


З нами з: 09.04.09
Востаннє: 14.08.16
Повідомлень: 4

2013-02-06 17:55  
народ якщо це фестиваль "Мамина піч" то він проводиться на Вінниччині поблизу с. Канава (один з організаторів "народний кум" засл. артист України Микола Янченко)

Додано через 3 хвилини 22 секунди:

ось посилання http://mamynapich.org.ua/ та http://uk.wikipedia.org/wiki/нченко_Микола_Олександрович

vladimir.tr 
Новенький


З нами з: 02.11.12
Востаннє: 01.12.16
Повідомлень: 2

2013-02-07 23:26  
Дякую Богові, що у нас ще є справжні таланти. Бо попса вже набридла. Здоровя та творчих успіхів цьому гурту.
Дивлюся на них, душа відпочиває

TMD 
Частий відвідувач


З нами з: 21.01.13
Востаннє: 19.10.16
Повідомлень: 33

2013-07-05 11:22  
Весело! Ух.!
Manuchao 
Новенький


З нами з: 22.10.11
Востаннє: 03.12.16
Повідомлень: 6

2013-11-17 17:35  
То це ж Лісапетний батальйон
Ваш часовий пояс: GMT + 2 Години

Нова тема   Відповісти